<?xml version="1.0" standalone="no"?> <!DOCTYPE svg PUBLIC "-//W3C//DTD SVG 1.0//EN" "http://www.w3.org/TR/2001/REC-SVG-20010904/DTD/svg10.dtd" > <svg xmlns="http://www.w3.org/2000/svg" width="100%" height="100%">
<defs >
<font id="cmunsx" horiz-adv-x="462" ><font-face
    font-family="CMU Sans Serif"
    units-per-em="1000"
    panose-1="2 0 8 3 0 0 0 0 0 0"
    ascent="928"
    descent="-336"
    alphabetic="0" />
<missing-glyph horiz-adv-x="760" d="M10 10V765H750V10H10ZM70 112L346 388L70 663V112ZM105 70H655L380 346L105 70ZM105 705L380 429L655 705H105ZM414 388L690 112V663L414 388Z" />
<glyph unicode=" " glyph-name="space" horiz-adv-x="367" />
<glyph unicode="!" glyph-name="exclam" horiz-adv-x="367" d="M117 46V84Q117 97 119 105T132 122T164 131H207Q248 131 248 85V47Q248 34 247 27T235 10T202 0H164Q150 0 141 2T125 15T117 46ZM117 694Q118 716 124 719Q128 722 139 722H226Q248 722 248 702L236
227Q236 209 228 199Q223 196 215 196H154Q131 196 130 215L117 694Z" />
<glyph unicode="&quot;" glyph-name="quotedbl" horiz-adv-x="550" d="M114 696V710Q118 722 136 722H227Q249 722 249 705Q249 704 249 700T248 695L219 403Q217 386 212 381Q206 378 197 378H165Q155 378 150 383T145 393T143 407L114 696ZM299 710Q303 722
321 722H412Q434 722 434 705V695L404 403Q402 386 397 381Q391 378 382 378H351Q341 378 336 383T330 393T328 408L300 696L299 710Z" />
<glyph unicode="#" glyph-name="numbersign" horiz-adv-x="916" d="M60 365Q60 378 68 387T83 398Q91 401 109 401H342L418 682L419 686Q420 690 421 692T424 699T429 707T436 714T445 719T457 721Q473 721 482 711T493 688Q493 683 488 663L417 401H580L657 682L658
686Q659 690 660 692T663 699T668 707T674 714T683 719T695 721Q711 721 720 711T731 688Q731 679 727 663L656 401H801Q816 401 823 400Q836 398 845 389T854 365Q854 357 852 350T838 336T809 328H635L593 172H806Q823 172 831 169Q854 161 854 135Q854 99 809
99H572L496 -182Q488 -221 457 -221Q442 -221 432 -211T421 -188Q421 -183 426 -163L497 99H334L257 -182Q249 -221 219 -221Q204 -221 194 -211T183 -188Q183 -179 187 -163L259 99H113Q98 99 91 100Q61 106 61 135Q61 142 63 149T76 164T105 172H279L321 328H108Q91
328 83 331Q60 339 60 365ZM354 172H518L560 328H397L354 172Z" />
<glyph unicode="$" glyph-name="dollar" horiz-adv-x="550" d="M49 77Q49 80 61 146Q65 170 75 170Q81 170 99 155T153 119T238 92V311Q150 329 105 390T60 524Q60 613 105 669T243 732Q254 749 274 749T305 732Q354 728 382 717T450 682Q451 681 455 679T460
676T463 673T466 670T467 666T468 660Q468 653 457 593Q453 571 444 571Q437 571 423 582T379 609T310 631V440Q391 423 439 360T488 211Q488 8 306 -10Q295 -27 274 -27Q254 -27 243 -10Q185 -5 117 24T49 77ZM176 545Q176 524 182 509T202 482T220 468T238 458V629H237Q190
615 180 575Q176 561 176 545ZM310 94Q372 113 372 191Q372 263 311 292L310 261V94Z" />
<glyph unicode="%" glyph-name="percent" horiz-adv-x="1029" d="M60 555Q60 750 242 750Q278 750 308 741T364 712T406 652T421 556Q421 361 241 361Q163 361 112 405T60 555ZM180 541Q181 516 182 504T188 472T207 443T242 434Q281 434 298 481Q307 508 307
556Q307 677 241 677Q220 677 207 668T189 641T182 609T180 572Q180 567 180 564V541ZM201 -2T201 14T216 49L746 724Q765 749 787 749Q807 749 817 736T828 708T815 676L292 9Q273 -15 266 -20T241 -27Q224 -26 213 -14ZM605 166Q605 361 787 361Q965 361 966
167Q966 -28 786 -28Q708 -28 657 16T605 166ZM725 152Q726 127 727 115T733 83T752 54T787 45Q826 45 843 92Q852 119 852 167Q852 288 786 288Q765 288 752 279T734 252T727 220T725 183Q725 178 725 175V152Z" />
<glyph unicode="&amp;" glyph-name="ampersand" horiz-adv-x="830" d="M45 152Q45 238 136 301Q139 303 140 304L200 348Q156 449 156 547Q156 635 212 689T342 744Q414 744 462 694T510 577Q510 483 330 355Q375 273 474 168Q530 223 558 264Q601 330 631 425Q635
437 645 437Q652 437 711 421Q731 415 731 404Q731 395 718 356T666 249T577 128L553 103Q602 78 644 78Q680 78 717 89T755 100Q768 100 768 80V17Q768 13 768 10T766 4T764 0T760 -3T756 -5T751 -6T746 -8Q694 -22 642 -22Q545 -22 460 35Q376 -6 317 -16Q283
-22 248 -22Q155 -22 100 30T45 152ZM182 180Q182 143 197 111T249 78Q310 78 373 104Q276 207 234 282H233Q217 270 210 263T192 234T182 180ZM270 570Q270 507 298 423Q396 494 396 576Q396 608 383 639T341 671Q317 671 294 647T270 570Z" />
<glyph unicode="&apos;" glyph-name="quotesingle" horiz-adv-x="305" d="M84 696V710Q88 722 106 722H197Q219 722 219 705Q219 704 219 700T218 695L189 403Q187 386 182 381Q176 378 167 378H135Q125 378 120 383T115 393T113 407L84 696Z" />
<glyph unicode="(" glyph-name="parenleft" horiz-adv-x="428" d="M85 249Q85 559 279 731Q283 735 284 736Q300 750 313 750H343Q364 750 364 737Q364 732 350 714T314 662T272 578T237 442T222 249T236 57T272 -78T314 -161T349 -213T364 -238Q364 -250 346
-250H316Q302 -250 295 -245T259 -214Q177 -136 131 -16T85 249Z" />
<glyph unicode=")" glyph-name="parenright" horiz-adv-x="428" d="M62 -237Q62 -231 76 -214T112 -162T154 -78T189 58T204 252Q204 353 192 434T156 571T116 654T75 714Q61 731 62 740Q65 750 80 750H111Q123 750 130 746T165 715Q190 692 214 661T269 573T320
432T340 250Q340 100 294 -18T166 -214Q136 -242 130 -245T109 -250H83Q62 -250 62 -237Z" />
<glyph unicode="*" glyph-name="asterisk" horiz-adv-x="550" d="M67 437Q67 444 68 449T72 460T78 468T88 476T101 483T119 491T140 499T167 509T199 521Q110 550 89 564T67 604Q67 627 83 646T124 665Q128 665 132 664T139 662T148 658T158 651T171 640T187
627T209 608T236 586Q218 688 218 700Q218 722 235 735T274 749T313 736T330 700Q330 694 311 586Q323 596 337 608T360 627T377 641T391 652T403 659T413 664T423 665Q446 665 463 647T480 604Q480 579 463 567T385 533Q362 525 349 520Q438 491 459 477T480 437Q480
414 464 395T423 376Q419 376 417 376T412 377T406 380T398 385T388 392T376 402T360 415T338 433T311 456Q330 347 330 339Q330 319 313 306T274 292T235 305T218 341Q218 354 236 456Q220 443 204 430T180 409T163 395T150 385T141 380T133 377T124 376Q101 376
84 395T67 437Z" />
<glyph unicode="+" glyph-name="plus" horiz-adv-x="855" d="M60 250Q60 286 106 286H390V576Q390 596 401 606T426 616Q463 616 463 571V286H744Q792 286 792 250T745 214H463V-75Q463 -93 453 -104T426 -116Q390 -116 390 -71V214H102Q83 214 72 224T60 250Z" />
<glyph unicode="," glyph-name="comma" horiz-adv-x="305" d="M86 22V98Q86 118 89 124T107 131H195Q209 131 213 127T217 109V23Q217 10 211 -2T160 -84Q155 -92 153 -94T147 -100T139 -104T128 -105H108Q88 -105 88 -92Q88 -87 120 0H108Q97 0 92 4T86 22Z" />
<glyph unicode="-" glyph-name="hyphen" horiz-adv-x="367" d="M12 229Q12 265 57 265H260Q304 265 304 229Q304 222 302 215T289 201T260 193H56Q30 193 21 205T12 229Z" />
<glyph unicode="." glyph-name="period" horiz-adv-x="305" d="M86 23V103Q87 113 87 115T89 123T95 130T108 131H195Q209 131 213 126T217 110V28Q217 19 217 16T215 8T209 2T196 0H109Q86 0 86 23Z" />
<glyph unicode="/" glyph-name="slash" horiz-adv-x="550" d="M61 -213Q61 -211 70 -181L408 702Q408 703 410 708T413 715T416 723T420 731T425 738T432 744T441 747T451 749Q465 749 476 739T487 714Q487 705 480 686L134 -216Q121 -249 97 -249Q83 -249 72
-239T61 -213Z" />
<glyph unicode="0" glyph-name="zero" horiz-adv-x="550" d="M42 324V358Q42 582 117 658Q175 717 274 717Q337 717 382 693T450 634T486 548T502 457T505 367V361Q505 356 505 343T506 320Q506 264 502 221T484 129T445 50T377 -1T273 -22Q167 -22 112 40Q42
117 42 324ZM179 350Q179 161 197 113Q205 91 224 71T274 50T323 70T350 112Q369 163 369 348V355Q369 468 365 517T348 594Q323 644 274 644Q238 644 215 617Q190 590 185 539T179 350Z" />
<glyph unicode="1" glyph-name="one" horiz-adv-x="550" d="M77 611Q77 633 95 641T138 649T201 659T267 696Q284 711 290 714T315 717Q356 717 356 673V73H429Q472 73 472 36Q472 0 429 0H135Q117 0 107 7T94 22T92 36T94 50T107 65T136 73H220V589Q156 576 122
575Q77 575 77 611Z" />
<glyph unicode="2" glyph-name="two" horiz-adv-x="550" d="M46 568Q46 572 51 586T72 623T109 666T170 702T257 717Q362 717 427 650T493 486Q493 458 485 432T467 387T431 340T389 296T330 243T265 184L183 106H217L425 108H448Q493 108 493 63V45Q493 0 448
0H100Q84 0 74 4T60 17T56 30T54 44V60Q54 73 63 84Q69 91 199 230Q204 235 222 254T247 281T270 306T293 334T312 361T330 390T342 419T351 452T354 485Q354 539 325 577T242 616Q204 616 179 596T144 552T126 507T112 487Q108 487 104 490T96 498T87 509T80 518Q74
525 67 534T57 546T51 555T47 562T46 568Z" />
<glyph unicode="3" glyph-name="three" horiz-adv-x="550" d="M46 73Q46 73 56 132Q58 143 64 148L69 149Q75 149 98 130T164 92T260 73Q288 73 308 82T338 103T353 135T360 168T361 201V208Q361 278 337 308T249 339H207Q192 339 187 343T182 365V392Q182 397
183 400T186 405T191 409T200 411T211 412T226 413T245 415Q286 419 310 456T335 545Q335 587 320 607T261 627Q227 627 198 614T154 586T127 557T111 544Q103 544 82 573T61 611Q61 620 82 643T154 692T266 717Q318 717 357 705T418 674T452 631T468 586T472 544Q472
441 365 377Q503 338 503 202Q503 85 438 31T266 -23Q158 -23 73 40Q71 42 67 45T60 50T55 54T51 59T49 63T47 68T46 73Z" />
<glyph unicode="4" glyph-name="four" horiz-adv-x="550" d="M30 196V228Q30 248 42 270L256 664Q264 678 275 688Q287 694 303 694H383Q427 694 427 648V248H472Q485 248 493 247T509 234T518 202Q518 197 517 189T504 167T471 153H427V44Q427 0 381 0H348Q305
0 305 44V153H79Q66 153 58 154T40 166T30 196ZM134 248H310V592Q296 551 134 248Z" />
<glyph unicode="5" glyph-name="five" horiz-adv-x="550" d="M37 94Q37 100 74 158Q83 171 89 171T109 148Q115 138 124 128T150 104T190 82T243 73Q280 73 303 84T336 118T349 161T352 213V226Q352 262 351 281T343 327T322 366T281 378Q221 378 185 324Q171
304 163 300T133 295Q112 295 105 298T89 311Q82 322 82 347V642Q82 657 83 665T94 684T126 694H413Q457 694 457 645Q457 621 449 609T433 596T406 594H210V438Q249 451 286 451Q327 451 361 441T427 406T476 334T494 221Q494 151 473 102T415 26T337 -11T246
-22Q207 -22 172 -12T113 14T72 46T46 76T37 94Z" />
<glyph unicode="6" glyph-name="six" horiz-adv-x="550" d="M45 336Q45 435 63 512T134 643Q208 717 332 717Q365 717 394 708T430 689Q433 684 433 672V626Q433 615 428 609L424 606L419 605Q414 606 403 612T376 622T337 627Q206 627 188 467Q185 443 185 418Q234
480 312 480Q412 480 464 404Q503 347 503 244Q503 170 491 125T441 38Q385 -22 277 -22Q229 -22 192 -7T130 30T89 87T64 150T51 220T46 282T45 336ZM185 251Q185 215 188 189T199 134T228 89T279 73Q294 73 306 75T326 85T341 97T352 116T358 135T362 159T363
182T364 208T364 233V264Q363 290 363 300T360 331T352 362T339 384T316 402T282 407Q230 407 208 360T185 251Z" />
<glyph unicode="7" glyph-name="seven" horiz-adv-x="550" d="M45 632V651Q45 695 90 695H166L387 694H458Q503 694 503 648Q502 620 498 612Q497 611 468 574Q412 501 373 420T317 271T292 151T283 59T281 18Q274 -11 239 -11H189Q143 -11 143 32Q146 349 358
588L312 587H158L101 586H89Q45 586 45 632Z" />
<glyph unicode="8" glyph-name="eight" horiz-adv-x="550" d="M45 203Q45 334 164 373Q168 375 169 375Q60 407 60 521Q60 627 117 671T258 716Q279 716 292 716T332 712T377 701T417 680T454 646T477 595T487 523Q487 411 382 376Q379 375 378 375Q503 340 503
204Q503 -22 274 -22T45 203ZM182 189Q183 130 200 102T273 73Q300 73 318 81T346 98T359 127T365 159T366 196V219Q366 276 348 307T274 338Q247 338 229 329T201 311T188 279T183 248T182 214V189ZM188 511Q188 462 204 437T273 411Q303 411 321 419T347 443T357
474T359 512V530Q359 583 342 605T274 627Q244 627 226 621T200 598T190 569T188 529V511Z" />
<glyph unicode="9" glyph-name="nine" horiz-adv-x="550" d="M45 456Q45 530 59 576T115 663Q171 717 276 717Q404 717 459 610Q479 572 489 523T501 439T503 348Q503 121 400 35Q332 -22 228 -22Q151 -22 90 23Q81 31 81 39Q81 46 110 96Q120 111 127 111Q130
111 159 92T227 73Q271 73 300 93T341 148T357 210T363 268Q363 274 363 276Q309 214 238 214Q131 214 79 298Q45 353 45 456ZM184 457Q184 382 188 356T211 305Q234 287 266 287Q318 287 340 335T363 448Q363 627 276 627Q250 627 232 619T205 599T191 564T185
524T184 476V457Z" />
<glyph unicode=":" glyph-name="colon" horiz-adv-x="305" d="M86 23V103Q87 113 87 115T89 123T95 130T108 131H195Q209 131 213 126T217 110V28Q217 19 217 16T215 8T209 2T196 0H109Q86 0 86 23ZM86 362V430Q87 452 93 455Q97 458 108 458H195Q209 458 213
453T217 436V355Q217 346 217 343T215 335T209 329T196 327H111Q92 327 89 332T86 362Z" />
<glyph unicode=";" glyph-name="semicolon" horiz-adv-x="305" d="M86 22V98Q86 118 89 124T107 131H195Q209 131 213 127T217 109V23Q217 10 211 -2T160 -84Q155 -92 153 -94T147 -100T139 -104T128 -105H108Q88 -105 88 -92Q88 -87 120 0H108Q97 0 92 4T86 22ZM86
362V430Q87 452 93 455Q97 458 108 458H195Q209 458 213 453T217 436V355Q217 346 217 343T215 335T209 329T196 327H111Q92 327 89 332T86 362Z" />
<glyph unicode="&lt;" glyph-name="less" horiz-adv-x="855" d="M91 249Q93 263 99 271T128 291L700 593Q716 601 726 601Q741 601 751 590T762 565Q762 560 761 556T757 548T752 541T746 535T739 531T733 527T727 524L205 250L726 -24Q727 -24 732 -26T739 -31T747
-36T755 -44T760 -53T762 -65Q762 -79 751 -90T726 -101Q716 -101 700 -93L129 208Q106 220 100 227T91 249Z" />
<glyph unicode="=" glyph-name="equal" horiz-adv-x="855" d="M61 135Q61 172 105 172H748Q792 172 792 135Q792 128 790 121T777 107T748 99H105Q61 99 61 135ZM61 364Q61 371 63 378T76 393T105 401H748Q774 401 783 389T792 365Q792 328 746 328H106Q61 328 61 364Z" />
<glyph unicode="&gt;" glyph-name="greater" horiz-adv-x="855" d="M91 565Q91 579 101 590T127 601H128Q137 601 153 593L724 292Q747 280 753 273T762 251Q760 236 755 229T726 209L153 -93Q137 -101 127 -101Q112 -101 102 -90T92 -65Q92 -60 93 -56T97 -48T102
-41T108 -35T115 -31T121 -27T127 -24L648 250L127 524Q126 524 121 526T114 531T106 536T98 544T93 553T91 565Z" />
<glyph unicode="?" glyph-name="question" horiz-adv-x="519" d="M61 668L63 673Q78 692 130 712T247 733Q344 733 400 699T457 576Q457 505 416 464L404 454Q391 444 387 441T371 426T352 406T336 383T320 356T308 326T299 290T296 250V225Q296 208 292 202T274
196H228Q198 197 195 201Q191 206 191 227V247Q191 376 288 492Q290 494 295 500T302 508T308 516T313 525T316 534T319 546T320 560T321 578Q321 624 307 642T246 660Q212 660 184 649T141 623T115 598T98 586Q88 586 75 623T61 668ZM177 46Q177 48 177 51T178
56V84Q178 98 179 106T192 122T224 131H268Q309 131 309 85V47Q309 38 308 32T303 18T289 5T262 0H225Q211 0 202 2T185 15T177 46Z" />
<glyph unicode="@" glyph-name="at" horiz-adv-x="733" d="M60 356Q60 563 170 656Q260 733 423 733Q551 733 609 660Q671 581 671 394V373Q671 339 669 313T654 248T621 185T557 142T457 123Q414 123 379 134T312 170T262 243T244 360Q244 599 458 599Q490 599
525 591Q496 661 421 661Q388 661 359 655T295 631T237 581T196 495T180 365Q180 334 181 318Q183 281 189 248T213 180T257 119T326 78T426 62Q470 62 504 71T563 91T598 104H651Q669 104 669 93Q669 85 656 73Q558 -11 422 -11Q366 -11 317 -2T219 33T137 99T81
205T60 356ZM364 352Q364 196 457 196Q551 196 551 370Q547 526 458 526Q364 526 364 363V352Z" />
<glyph unicode="A" glyph-name="A" horiz-adv-x="733" d="M42 27Q42 34 46 46L258 648Q266 671 279 682T321 694H411Q429 694 441 690T461 674T471 657T479 634L686 44Q690 32 690 27Q690 0 653 0H600Q591 0 584 0T571 4T560 10T551 21T543 35T535 55T526 80T515
112T501 151H216Q209 133 202 110T190 75T181 50T171 29T162 16T150 6T136 2T117 0H80Q42 0 42 27ZM246 237H471Q369 529 359 569Q349 533 246 237Z" />
<glyph unicode="B" glyph-name="B" horiz-adv-x="733" d="M91 46V648Q91 662 93 670T107 686T138 694H351Q401 694 432 692T511 677T589 636Q641 588 641 514Q641 495 637 478T625 447T609 423T587 404T565 389T542 378T522 371T504 366L493 363Q574 353 622 310T671
192Q671 80 575 31Q514 0 383 0H138Q111 0 101 11T91 46ZM228 86H363Q476 86 515 131Q538 158 538 197Q538 219 532 238T509 277T460 309T378 324H228V86ZM228 397H322Q383 397 416 404T481 437Q510 472 510 511Q510 569 449 593Q409 608 333 608H228V397Z" />
<glyph unicode="C" glyph-name="C" horiz-adv-x="703" d="M60 -23T60 347T429 717Q510 717 607 688Q624 682 630 676Q633 670 633 666T618 580Q612 551 603 551Q598 551 584 561T552 583T501 606T428 616Q202 616 202 348Q202 289 212 243T247 159T318 99T432
78Q481 78 518 88T572 110T603 132T626 142Q628 142 629 142T632 140T634 137T636 132T637 127T638 120T639 113T640 105T641 96Q642 84 643 75T644 62T645 56T645 51Q645 46 644 43T640 37T635 32T628 28L621 24Q572 -4 532 -13T427 -23Q60 -23 60 347Z" />
<glyph unicode="D" glyph-name="D" horiz-adv-x="794" d="M91 45V646Q91 694 133 694H373Q432 694 478 687T574 658T657 599T711 496T732 341Q732 248 706 181T645 80T556 27T466 4T384 0H137Q115 0 103 9T91 45ZM230 86H341Q390 86 422 89T493 112T557 166Q591
218 593 321V332Q593 380 591 410T577 480T543 545T479 587T376 608H231L230 579V86Z" />
<glyph unicode="E" glyph-name="E" horiz-adv-x="642" d="M91 47V644Q91 671 102 681T137 691H535Q555 691 565 683T578 667T580 646V630Q580 586 538 586Q525 586 504 586T409 588T233 590V405H498Q510 405 517 404T532 399T545 385T550 357Q550 310 505 310H233V107L553
111Q595 110 595 65V44Q595 0 550 0H137Q116 0 105 9T93 26T91 47Z" />
<glyph unicode="F" glyph-name="F" horiz-adv-x="611" d="M91 46V649Q91 691 136 691H519Q546 691 555 680T564 646V631Q564 586 519 586Q516 586 465 587T344 589T233 590V393H474Q518 393 518 347Q518 325 510 314T494 300T472 298H233V44Q233 0 189 0H137Q109
0 100 12T91 46Z" />
<glyph unicode="G" glyph-name="G" horiz-adv-x="733" d="M60 348Q60 717 426 717Q535 717 625 675Q648 665 648 654Q648 648 634 567Q629 544 622 538L617 537Q610 539 595 552T562 579T508 604T426 616Q370 616 328 599T263 557T225 493T207 421T202 344Q202
78 428 78Q460 78 522 89V228H448Q437 228 432 232T426 250V300Q426 311 429 316T437 322T451 323H639Q650 322 654 318T659 302V49Q659 32 644 24Q542 -22 424 -22Q365 -22 315 -12T217 23T135 89T81 196T60 348Z" />
<glyph unicode="H" glyph-name="H" horiz-adv-x="794" d="M91 37T91 39T91 54V647Q91 694 138 694H189Q233 694 233 649V408H560V650Q560 694 604 694H656Q672 694 682 690T696 676T701 661T702 647V54Q702 53 702 51Q702 40 701 34T697 18T684 5T658 0H607Q560
0 560 44V313H233V44Q233 0 187 0H136Q122 0 113 4T100 12T93 26Z" />
<glyph unicode="I" glyph-name="I" horiz-adv-x="325" d="M91 46V647Q91 694 133 694Q133 694 187 694Q233 694 233 649V48Q233 29 230 22Q228 17 224 13T217 6T209 3T202 1T194 1T188 0H137Q115 0 103 9T91 46Z" />
<glyph unicode="J" glyph-name="J" horiz-adv-x="519" d="M47 36Q47 58 62 128Q66 139 73 139Q79 139 88 130T109 109T144 88T196 78Q288 78 288 154V648Q288 655 289 660T291 670T295 678T300 684T305 688T311 691T317 692T323 693T330 694H334H380Q407 694 417
683T427 647V154Q427 104 410 68T363 13T302 -14T235 -22Q181 -22 123 -7T49 25Q47 29 47 36Z" />
<glyph unicode="K" glyph-name="K" horiz-adv-x="764" d="M91 49V646Q91 694 136 694H171Q215 694 216 652V367L548 678Q568 694 599 694H666Q695 694 695 674Q695 670 694 667T690 659T684 653T676 646T669 639L419 404V403L690 46Q700 32 701 25Q699 0 668 0H609Q588
0 579 6T556 28L333 323L216 214V47Q216 34 215 27T203 10T171 0H135Q119 0 109 5T96 20T92 34T91 49Z" />
<glyph unicode="L" glyph-name="L" horiz-adv-x="580" d="M91 47V647Q91 671 101 682T137 694H189Q233 694 233 651V101Q271 101 333 102T442 105T490 106Q534 106 534 60V49Q534 35 532 26T519 8T487 0H137Q123 0 115 2T99 16T91 47Z" />
<glyph unicode="M" glyph-name="M" horiz-adv-x="978" d="M91 55V650Q91 694 136 694H218Q259 694 277 666Q285 653 379 422T486 148Q496 184 683 642Q691 660 695 668T714 685T752 694H841Q886 694 886 648V48Q886 25 877 13T840 0H808Q791 0 781 4T768 19T764
34T763 52V541Q763 546 763 555T762 569Q752 523 567 75Q553 41 538 32T497 22H477Q464 22 455 23T438 30T426 40T415 58T404 81T391 113T375 153L271 410Q221 541 214 569V46Q214 0 169 0H136Q119 0 109 4T96 19T92 35T91 55Z" />
<glyph unicode="N" glyph-name="N" horiz-adv-x="794" d="M91 46V649Q91 694 137 694H229Q261 694 276 682T305 643L579 118V648Q579 661 580 669T593 685T625 694H658Q702 694 702 649V45Q702 0 656 0H565Q533 0 518 12T488 51L214 576V46Q214 0 168 0H135Q91 0 91 46Z" />
<glyph unicode="O" glyph-name="O" horiz-adv-x="794" d="M60 343Q60 717 395 717Q732 717 732 343Q732 -22 397 -22Q60 -22 60 343ZM202 345Q202 320 202 302T207 252T218 197T239 146T274 101T325 71T397 59Q476 59 525 108Q548 131 562 163T581 234T588 300T590
366V373Q590 397 590 414T585 461T574 513T553 559T518 601T467 628T396 639Q315 639 265 591Q236 563 221 516T204 438T202 353V345Z" />
<glyph unicode="P" glyph-name="P" horiz-adv-x="703" d="M91 46V643Q91 658 92 666T105 684T137 694H345Q387 694 409 693T469 687T534 668T585 632Q641 577 641 479Q641 436 630 402T602 345T559 308T510 285T456 273T406 269T360 268H233V46Q233 0 188 0H137Q124
0 116 2T99 15T91 46ZM230 347H364Q404 347 432 356T475 378T497 411T506 446T507 483Q506 524 495 550T460 588T412 604T351 608H231L230 571V347Z" />
<glyph unicode="Q" glyph-name="Q" horiz-adv-x="794" d="M60 342Q60 717 400 717Q447 717 488 710T574 680T650 621T705 524T731 381L732 336Q732 335 732 324T732 302T730 274T726 241T718 204T706 165T689 127T666 90T636 56T598 27Q614 6 628 -13T651 -42T665
-59T674 -72T676 -82Q676 -105 645 -105H565Q558 -105 554 -105T545 -103T537 -100T530 -95T523 -87T514 -76T503 -61T490 -41T473 -17Q426 -22 396 -22Q60 -22 60 342ZM199 338Q199 156 273 95Q318 56 395 56Q412 56 421 57L360 145L349 162L346 171Q351 186 358
190T382 194H445Q461 194 470 187T512 136Q525 119 533 109Q593 176 593 327V340Q593 378 592 404T583 473T558 548T511 603Q462 639 396 639Q321 639 270 594Q245 572 230 540T208 469T201 405T199 343V338Z" />
<glyph unicode="R" glyph-name="R" horiz-adv-x="703" d="M91 47V648Q91 694 137 694H380Q514 692 578 640Q641 589 641 497Q641 360 486 321Q483 320 481 320L645 43Q651 31 652 24Q649 0 618 0H561Q540 0 531 5T513 28Q359 294 350 311H230V44Q230 36 229 31T225
18T210 5T183 0H135Q91 0 91 47ZM230 383H356Q432 383 469 405T507 495T470 585T357 608H231L230 574V383Z" />
<glyph unicode="S" glyph-name="S" horiz-adv-x="611" d="M49 63Q49 71 63 147Q68 177 79 177Q85 177 103 163T143 132T210 100T309 86Q423 86 423 184Q423 243 363 271Q352 276 341 279T298 289T231 305Q167 321 114 373T60 509Q60 545 68 576T100 641T176 696T306
717Q357 717 406 705T482 680T510 660Q511 658 511 653Q511 637 493 548Q489 537 483 537Q475 537 462 549T434 575T381 601T295 613Q234 613 210 588T186 528Q186 502 198 484T235 456T282 439T337 427T386 414Q452 393 500 337T549 199Q549 155 538 118T501 48T425
-3T305 -22Q245 -22 184 -6T89 27T51 54Q49 62 49 63Z" />
<glyph unicode="T" glyph-name="T" horiz-adv-x="733" d="M39 632V640Q39 667 50 677T88 688H644Q673 688 683 677T693 640V632Q693 609 685 598T667 586T640 584Q618 584 539 585T438 587V48Q438 21 428 11T390 0H343Q315 0 305 10T295 48V587Q136 584 92 584Q78
584 72 585T56 590T43 604T39 632Z" />
<glyph unicode="U" glyph-name="U" horiz-adv-x="764" d="M91 240V644Q91 659 92 667T105 685T137 694H187Q200 694 208 692T224 679T233 647V242Q233 202 237 176T253 124T293 83T362 65L387 64Q429 65 458 76T502 102T525 144T535 191T537 243V649Q537 670 546
680T564 692T585 694H629Q671 694 671 648V243Q671 116 604 48T383 -22Q91 -22 91 240Z" />
<glyph unicode="V" glyph-name="V" horiz-adv-x="733" d="M27 667Q27 694 62 694H117Q124 694 130 693T142 691T151 687T159 682T165 675T170 669T175 660T178 652T182 643T185 634L372 125Q382 162 557 632Q564 652 567 659T579 677T598 690T628 694H670Q704
694 704 667Q704 661 700 649L480 58Q474 42 471 35T461 18T442 4T412 0H321Q310 0 301 1T285 7T274 14T266 24T260 35T254 48T250 60L31 649Q27 661 27 667Z" />
<glyph unicode="W" glyph-name="W" horiz-adv-x="1039" d="M24 665Q24 694 62 694Q62 694 95 694Q142 694 152 655L257 260Q275 192 290 125Q294 149 324 266T389 512T425 646Q428 656 430 662T438 677T456 690T484 694H553Q571 694 583 690T601 676T610 659T617
637L712 282Q740 178 752 125L891 649Q898 673 911 683T949 694H974Q1012 694 1012 664Q1012 660 1009 646L852 62Q842 23 830 12Q816 0 790 0H713Q691 0 677 10T660 28T652 54L560 396Q557 406 540 470T515 569L378 54Q378 53 377 47T374 39T371 31T367 23T362
16T354 9T345 5T333 1T318 0H246Q233 0 224 3T209 10T199 22T193 35T188 50T184 64L27 647Q24 656 24 665Z" />
<glyph unicode="X" glyph-name="X" horiz-adv-x="733" d="M38 23Q38 31 50 48L284 367V369L67 647Q55 664 55 672Q55 694 92 694Q92 694 169 694Q189 694 199 688T224 662L358 483L486 663Q500 683 509 688T538 694H598Q599 694 604 694T612 695Q649 695 649 672Q649
664 637 647L432 369L679 50Q693 31 693 22Q693 1 666 0H578Q562 0 552 5T538 14T524 33L358 264L202 34Q188 13 178 7T148 0H65Q38 1 38 23Z" />
<glyph unicode="Y" glyph-name="Y" horiz-adv-x="733" d="M25 671Q25 694 59 694H121Q132 694 140 693T158 688T173 681T189 667T205 648T226 619T251 584T283 537T323 480Q366 416 373 403Q384 426 535 641Q556 671 573 682T624 694H673Q707 694 707 671Q707
663 689 637L440 283Q435 270 435 256V47Q435 19 424 10T389 0H340Q296 0 296 45V278L39 642Q25 661 25 671Z" />
<glyph unicode="Z" glyph-name="Z" horiz-adv-x="672" d="M60 49V58Q60 79 75 100L436 598L121 595Q92 595 84 607T75 644Q75 654 76 660T80 675T94 689T119 694H566Q581 694 590 690T604 678T609 663T610 646V641Q610 620 595 599L235 101L474 104H503Q557 105
571 105Q598 105 607 93T616 60V46Q616 25 608 13T572 0H103Q82 0 72 11T61 29T60 49Z" />
<glyph unicode="[" glyph-name="bracketleft" horiz-adv-x="343" d="M84 -202V701Q84 716 86 725T99 742T130 750H271Q297 750 307 738T317 713Q317 692 296 681Q287 677 265 677H218V-177H273Q317 -177 317 -213Q317 -250 271 -250H129Q108 -250 98 -241T86 -223T84
-202Z" />
<glyph unicode="\" glyph-name="backslash" horiz-adv-x="550" d="M61 713Q61 729 71 739T96 749Q122 749 136 712L485 -201Q487 -209 487 -214Q487 -227 477 -238T451 -249Q439 -249 430 -241T418 -227T409 -206L69 684Q61 708 61 713Z" />
<glyph unicode="]" glyph-name="bracketright" horiz-adv-x="343" d="M25 -213Q25 -177 70 -177H124V677H71Q25 677 25 713Q25 750 70 750H211Q227 750 237 746T251 732T256 717T257 701V-202Q257 -215 256 -223T244 -240T212 -250H70Q25 -250 25 -213Z" />
<glyph unicode="^" glyph-name="asciicircum" horiz-adv-x="672" d="M171 471Q171 478 205 525Q214 537 239 571Q261 602 274 620Q285 634 301 634H373Q384 634 392 625T441 559Q470 518 491 490Q500 476 500 471Q500 458 483 458H451Q440 458 431 464T381 510Q354
536 335 553Q256 478 244 468T219 458H198Q171 458 171 471Z" />
<glyph unicode="_" glyph-name="underscore" horiz-adv-x="855" d="M92 -295Q92 -287 94 -279T109 -262T141 -253H712Q741 -253 751 -266T762 -294Q762 -303 760 -311T744 -327T710 -336H142Q92 -336 92 -295Z" />
<glyph unicode="`" glyph-name="grave" horiz-adv-x="550" d="M108 664V669Q112 679 128 679H221Q235 679 244 669Q248 665 333 555L338 545L339 541Q338 528 320 528H293Q287 528 283 528T275 531T269 534T263 538T257 543Q112 656 110 658T108 664Z" />
<glyph unicode="a" glyph-name="a" horiz-adv-x="525" d="M30 137Q30 176 53 205T108 250T185 275T262 288T328 291V312Q328 355 314 380T257 405Q218 405 186 395T139 371T110 347T90 336L86 337L82 340Q79 345 77 364T73 400L72 417Q72 422 72 424T76 430T80
434T89 438T100 443Q172 475 257 475Q371 475 417 432T464 308V45Q464 0 419 0H371Q349 0 340 12T330 40Q264 -11 176 -11Q109 -11 70 35T30 137ZM161 137Q161 108 180 85T230 62Q264 62 296 83T328 154V232Q297 229 275 226T223 213T177 184T161 137Z" />
<glyph unicode="b" glyph-name="b" horiz-adv-x="561" d="M60 46V676Q60 698 69 710T106 722H150Q194 722 194 678V429Q257 469 333 469Q476 469 512 334Q523 292 523 224T505 108T454 35T386 0T309 -11Q246 -11 196 27Q188 11 180 6T152 0H106Q60 0 60 46ZM197
101L200 97Q204 93 205 92T211 86T219 80T227 75T236 70T247 66T260 63T275 62Q307 62 329 73T362 99T379 139T385 181T386 226Q386 231 386 234Q386 264 385 281T379 324T364 362T334 386T286 397Q239 397 197 362V101Z" />
<glyph unicode="c" glyph-name="c" horiz-adv-x="489" d="M36 228Q36 475 280 475Q367 475 442 434Q450 429 450 418Q445 340 426 340Q419 340 395 360T347 388Q321 397 270 397Q243 396 224 384T195 357T180 318T174 280T173 242V223Q173 198 174 182T180 142T196
104T227 78T277 67Q313 67 343 76T389 97T418 119T438 131L443 130Q449 126 450 119T456 60V52Q456 38 436 27Q363 -11 274 -11Q36 -11 36 228Z" />
<glyph unicode="d" glyph-name="d" horiz-adv-x="561" d="M36 239Q38 363 94 416T240 469Q309 469 365 433V678Q365 722 409 722H449Q471 722 482 715T496 699T499 677V46Q499 0 454 0H408Q371 0 362 32Q302 -11 235 -11Q84 -11 47 130Q36 172 36 239ZM173 221Q173
193 174 177T180 136T196 97T226 73T274 62Q307 62 334 80T362 121V366Q361 366 357 369T349 376T338 383T324 389T306 394T284 396Q253 396 231 385T197 360T181 322T174 282T173 242V221Z" />
<glyph unicode="e" glyph-name="e" horiz-adv-x="511" d="M30 233Q30 355 94 415T270 475Q330 475 372 457T437 406T469 337T479 257Q479 214 435 214H159Q163 62 286 62Q330 62 366 76T426 108T453 127H457L462 125Q467 120 469 103T472 70L473 55Q473 42 457
33Q380 -11 284 -11Q159 -11 95 51T30 233ZM160 279H367Q364 337 344 369T270 402Q172 402 160 279Z" />
<glyph unicode="f" glyph-name="f" horiz-adv-x="336" d="M31 422Q31 458 76 458H86V546Q86 732 279 733H281Q355 733 376 718L379 714L381 709V648Q381 623 369 623Q364 623 354 632T326 651T283 660T245 653T225 632T218 607T216 580V458H271Q293 458 303 447T314
422Q314 414 312 407T298 393T269 385H219V52Q219 39 218 33T213 17T199 4T172 0H130Q109 0 99 9T87 26T86 46V385H74Q31 385 31 422Z" />
<glyph unicode="g" glyph-name="g" horiz-adv-x="550" d="M24 -65Q24 -2 80 29Q54 68 54 108Q54 150 81 190V192Q41 238 41 303Q41 332 48 357T75 410T138 453T243 469H246Q286 469 314 463T356 450T374 444Q377 444 396 450T445 462T503 469Q517 469 521 462T530
425Q531 417 532 412Q533 393 515 393Q513 393 504 394T480 397T446 398L420 397Q444 349 444 304Q444 139 242 139Q178 139 127 159Q124 148 124 140Q124 92 183 92H269Q307 92 330 91T388 86T442 71T483 45T513 1T523 -63Q523 -150 431 -185Q376 -206 274 -206Q252
-206 238 -206T196 -203T148 -195T104 -180T64 -155T36 -117Q24 -93 24 -65ZM127 -63Q127 -134 275 -134H279Q334 -134 367 -122T410 -97T420 -67Q420 -38 387 -28T282 -17H184Q142 -17 132 -38Q127 -48 127 -63ZM170 296Q170 254 183 233T241 211Q286 211 301
230T316 296V312Q316 355 302 376T245 397Q201 397 186 378T170 312V296Z" />
<glyph unicode="h" glyph-name="h" horiz-adv-x="561" d="M59 44V674Q59 722 103 722H143Q158 722 167 720T184 708T193 677V403Q259 469 352 469Q388 469 414 463T456 443T481 417T494 382T499 346T500 308V44Q500 0 457 0H410Q383 0 374 11T364 44V324Q364 360
353 378T306 396Q261 396 232 366T197 295Q196 290 196 260V50Q196 38 195 32T190 17T176 4T149 0H105Q59 0 59 44Z" />
<glyph unicode="i" glyph-name="i" horiz-adv-x="255" d="M56 626V676Q56 692 59 702T72 716T85 720T101 722H152Q173 722 185 713T198 676V624Q198 616 197 610T193 599T187 591T180 586T172 583T165 581T158 580H154H102Q81 580 69 589T56 626ZM60 50V413Q60
458 104 458H145Q167 458 178 450T192 433T194 408V45Q194 0 150 0H104Q83 0 73 10T61 28T60 50Z" />
<glyph unicode="j" glyph-name="j" horiz-adv-x="286" d="M-69 -157Q-62 -101 -45 -101Q-42 -101 -18 -111T30 -121Q92 -121 92 -62V414Q92 422 93 429T97 440T103 448T110 453T118 456T125 457T131 457T137 458H180Q226 458 226 412V-15Q226 -41 225 -61T215
-110T191 -159T147 -192T76 -206Q36 -206 -16 -191T-69 -157ZM84 626V676Q84 692 88 701T100 715T113 720T129 722H180Q201 722 213 713T226 676V624Q226 616 225 610T221 599T214 591T207 586T199 583T192 581T185 580H181H129Q108 580 96 589T84 626Z" />
<glyph unicode="k" glyph-name="k" horiz-adv-x="530" d="M69 47V678Q69 722 114 722Q114 722 141 722Q157 722 167 717T181 703T185 688T186 674V303Q215 330 259 371Q328 436 344 447T390 458H456Q478 457 481 440Q480 428 463 411T312 272Q313 271 485 45Q495
31 495 22Q495 0 465 0H412Q392 0 382 5T356 29L230 195L184 153V44Q184 0 139 0H115Q99 0 89 4T75 17T70 32T69 47Z" />
<glyph unicode="l" glyph-name="l" horiz-adv-x="255" d="M60 45V675Q60 722 102 722Q102 722 148 722Q194 722 194 677V49Q194 37 193 30T188 16T175 5T149 0H108Q85 0 73 9T60 45Z" />
<glyph unicode="m" glyph-name="m" horiz-adv-x="866" d="M59 45V419Q59 463 104 463H144Q154 463 159 462T173 458T186 445T190 420V400Q209 418 220 427T270 453T353 469Q412 469 444 452T492 395Q554 469 658 469Q701 469 730 459T774 435T796 396T805 354T806
307V45Q806 23 797 12T760 0H716Q708 0 702 1T691 4T683 8T678 14T674 20T672 28T671 34T670 41T670 47V319Q670 338 669 348T663 371T645 390T611 396Q570 396 543 371T506 313Q501 296 501 261V54Q501 52 501 49T499 36T492 19T479 6T457 0H411Q383 0 374 11T364
45V323Q364 362 352 379T306 396Q262 396 229 363T196 269V45Q196 0 151 0H106Q59 0 59 45Z" />
<glyph unicode="n" glyph-name="n" horiz-adv-x="561" d="M59 45V418Q59 437 67 448T83 461T104 463H144Q154 463 159 462T173 458T186 445T190 420V400Q259 469 352 469Q388 469 414 463T456 443T481 417T494 382T499 346T500 308V44Q500 0 457 0H410Q383 0 374
11T364 44V318Q364 333 364 341T360 361T351 379T334 391T305 396Q263 396 237 371T202 315Q196 293 196 261V53Q196 51 196 48T193 35T186 18T173 6T150 0H106Q59 0 59 45Z" />
<glyph unicode="o" glyph-name="o" horiz-adv-x="550" d="M30 224Q30 296 49 347T103 425T175 463T259 475Q285 475 304 474T352 468T402 452T446 423T484 378T508 312T518 220Q518 -11 275 -11Q30 -11 30 224ZM167 214Q168 188 169 175T176 138T192 101T223 78T274
67T325 77T356 101T373 138T380 178T381 220Q381 226 381 228V255Q381 276 380 286T377 318T367 351T349 376T318 396T273 402Q242 402 221 391T189 367T174 327T168 286T167 241V214Z" />
<glyph unicode="p" glyph-name="p" horiz-adv-x="561" d="M60 -149V412Q60 458 105 458Q105 458 147 458Q185 458 193 427Q261 469 340 469Q477 469 512 335Q523 291 523 224Q523 156 505 108T454 35T386 0T309 -11Q248 -11 197 26V-147Q197 -175 186 -185T150
-195H104Q60 -195 60 -149ZM197 100L202 94Q208 89 211 86T221 78T235 70T252 65T273 62Q332 62 360 106Q386 147 386 230V242Q386 391 284 391Q274 391 266 390T249 387T236 382T224 376T214 370T204 364L197 358V100Z" />
<glyph unicode="q" glyph-name="q" horiz-adv-x="561" d="M36 229Q36 359 95 414T246 469Q258 469 268 468T288 465T305 460T320 453T333 447T344 440T352 433T359 427T365 422Q365 469 407 469H457Q499 469 499 425V-146Q499 -160 498 -168T485 -186T454 -195H407Q362
-195 362 -147V34Q304 -11 238 -11Q210 -11 186 -7T133 13T84 54T50 124T36 229ZM173 228Q173 62 274 62Q299 62 321 75T348 95T365 116V315Q365 346 341 368T284 391Q173 391 173 228Z" />
<glyph unicode="r" glyph-name="r" horiz-adv-x="372" d="M60 43V418Q60 447 72 455T106 463H139Q166 463 179 450Q186 442 187 434T189 388Q213 421 247 441T300 465T335 469H336Q349 469 352 464T356 447V391Q356 380 351 373Q345 368 325 366T288 358Q254 346
229 321T197 263Q194 250 194 225V50Q194 29 191 23T176 6Q164 0 148 0H105Q78 0 69 12T60 43Z" />
<glyph unicode="s" glyph-name="s" horiz-adv-x="422" d="M31 50Q31 54 43 120Q46 143 57 143Q62 143 80 125T135 87T218 68Q296 68 296 121Q296 149 272 162T202 182T140 196Q101 211 69 244T36 331Q36 471 204 475H230Q294 474 352 450Q367 444 371 440T376
426Q376 420 366 363Q362 348 354 348Q347 348 331 361T283 388T209 402Q135 402 135 354Q135 328 163 316T238 296T308 275Q327 266 344 252T378 208T396 140Q396 56 348 23T216 -11Q112 -11 37 37L33 42Q31 48 31 50Z" />
<glyph unicode="t" glyph-name="t" horiz-adv-x="404" d="M21 422Q21 458 65 458H89V544Q89 589 137 589H173Q218 589 218 544V458H309Q327 458 338 450T351 435T354 421T352 407T339 393T311 385H218V185Q218 180 218 172T217 159Q217 106 227 87T259 67Q287
67 317 84T349 102Q356 102 361 88T370 60L372 47Q372 28 310 9T190 -11Q117 -11 95 61Q86 91 86 152V385H65Q21 385 21 422Z" />
<glyph unicode="u" glyph-name="u" horiz-adv-x="561" d="M59 139V414Q59 458 103 458Q103 458 149 458Q171 458 182 449T194 434T196 413V147Q196 143 196 135T195 123Q195 79 206 65T259 50Q299 50 331 79T364 181V406Q364 421 365 428T368 439T377 449Q388
458 411 458H455Q499 458 500 416V43Q500 0 455 0H408Q367 0 367 44Q333 11 299 0T219 -11Q175 -11 144 -2T96 21T71 56T61 95T59 139Z" />
<glyph unicode="v" glyph-name="v" horiz-adv-x="500" d="M25 430Q25 458 61 458Q61 458 94 458Q111 458 122 453T141 437T149 422T154 407L250 113L348 413Q362 458 410 458H437Q452 458 460 453T469 444T472 432Q472 423 466 405L351 51Q342 23 329 12T288 0H210Q193
0 181 4T162 18T153 35T145 56L33 402Q25 426 25 430Z" />
<glyph unicode="w" glyph-name="w" horiz-adv-x="744" d="M25 429Q25 458 62 458H90Q115 458 128 448T150 410Q222 152 229 129L309 414Q321 458 366 458H370Q394 458 414 444L423 429L512 114H513L597 414Q609 458 655 458H683Q719 458 719 429Q719 426 718 421T716
415L616 57Q612 42 610 37T602 20T584 5T555 0H476Q466 0 459 1T446 5T436 13T428 22T422 36T417 52T411 72T405 94Q361 253 352 321Q349 276 286 47Q279 22 266 11T228 0H189Q182 0 175 1T164 3T155 8T147 13T141 20T137 27T133 35T131 43T128 52T126 60L28 411Q25
420 25 429Z" />
<glyph unicode="x" glyph-name="x" horiz-adv-x="500" d="M25 22Q25 29 32 39T88 109Q121 149 143 177Q183 228 191 236Q181 249 43 413Q32 427 32 438Q32 458 61 458H110Q117 458 121 458T130 457T139 454T147 449T156 440T167 429T180 412T197 390T219 362T246
327Q326 435 336 444Q353 458 377 458H426Q455 458 455 438Q455 427 444 413Q312 251 301 236Q347 185 464 42Q473 31 473 22Q473 0 443 0H392Q368 0 355 12T293 96Q265 137 246 164Q154 27 146 18Q125 0 105 0H56Q25 0 25 22Z" />
<glyph unicode="y" glyph-name="y" horiz-adv-x="500" d="M30 433Q30 458 64 458H98Q134 458 152 434Q157 429 181 378T234 254T269 137Q273 189 344 400Q358 438 369 447Q383 458 409 458H437Q472 458 472 431Q472 424 468 412L313 -39Q300 -76 293 -90Q235 -206
123 -206Q60 -206 47 -193Q42 -188 37 -124Q36 -105 42 -99L47 -97H51Q55 -98 66 -104T93 -115T126 -120Q147 -120 162 -111T187 -86T204 -53T217 -16Q219 -9 220 -5Q221 4 216 14L39 405Q30 425 30 433Z" />
<glyph unicode="z" glyph-name="z" horiz-adv-x="476" d="M30 41Q30 63 54 92L287 385L89 383Q71 383 61 391T48 406T45 421T47 436T60 450T89 458H398Q417 458 428 447T439 417Q439 406 435 396T429 384T415 367L182 74L399 76Q441 75 441 38Q441 0 398 0H74Q31
0 30 41Z" />
<glyph unicode="{" glyph-name="braceleft" horiz-adv-x="550" d="M55 236V266Q55 276 59 280T68 286T85 288T109 291Q149 300 174 322T205 374Q206 378 206 402V618Q206 657 227 685T285 726T356 744T431 750H470Q488 750 491 744T494 702Q494 686 487 680L483
678Q475 677 455 676T420 673T388 667T360 654T345 632Q343 624 343 606V404Q343 381 340 366T326 327T285 284T211 250Q263 236 297 206T340 136Q343 123 343 96V-113Q343 -133 349 -145T378 -165Q409 -177 450 -177Q453 -177 457 -177T463 -176Q486 -176 490
-182T494 -215V-225Q494 -240 489 -245T473 -250H435Q405 -250 377 -247T309 -234T242 -200T208 -141Q206 -131 206 -111V95Q206 123 204 130Q196 163 163 186T81 213L65 215L61 217L57 222Q55 230 55 236Z" />
<glyph unicode="|" glyph-name="bar" horiz-adv-x="305" d="M110 -200V700Q110 728 124 738T152 749Q160 749 168 747T184 732T193 700V-201Q193 -221 184 -232T168 -246T152 -249T136 -246T119 -232T110 -200Z" />
<glyph unicode="}" glyph-name="braceright" horiz-adv-x="550" d="M55 -202Q55 -187 62 -180L66 -178Q74 -177 95 -176T130 -173T162 -167T191 -154T205 -132Q206 -128 206 -106V107Q206 208 338 250Q286 264 252 294T209 364Q206 377 206 404V613Q206 632 199
644T171 665Q140 677 104 677Q99 677 91 677T79 676Q66 676 61 681T55 704V717Q55 719 55 725T55 733T56 739T58 744T62 747T68 749T77 750H96L162 748Q213 744 249 731T303 703T330 669T341 637T343 611V405Q343 377 345 370Q353 337 386 314T468 287L484 285L488
283L492 278Q494 270 494 264V234Q494 224 491 220T482 215T464 213T440 209Q406 201 379 180T345 126Q343 117 343 98V-118Q343 -157 322 -185T264 -226T192 -244T117 -250H77Q62 -250 59 -243T55 -215V-202Z" />
<glyph unicode="~" glyph-name="asciitilde" horiz-adv-x="672" d="M91 601Q91 644 130 682T233 720Q287 720 351 688T439 655Q462 655 482 667T506 700Q510 716 516 718Q520 720 526 720H559Q579 720 579 702Q579 659 541 621T437 582Q383 582 319 614T231 647Q208
647 189 635T165 601Q162 588 157 585T134 582H113Q91 582 91 601Z" />
</font>
</defs>
</svg>
