<?xml version="1.0" standalone="no"?> <!DOCTYPE svg PUBLIC "-//W3C//DTD SVG 1.0//EN" "http://www.w3.org/TR/2001/REC-SVG-20010904/DTD/svg10.dtd" > <svg xmlns="http://www.w3.org/2000/svg" width="100%" height="100%">
<defs >
<font id="cmunss" horiz-adv-x="420" ><font-face
    font-family="CMU Sans Serif"
    units-per-em="1000"
    panose-1="2 0 6 3 0 0 0 0 0 0"
    ascent="900"
    descent="-250"
    alphabetic="0" />
<missing-glyph horiz-adv-x="760" d="M10 10V765H750V10H10ZM70 112L346 388L70 663V112ZM105 70H655L380 346L105 70ZM105 705L380 429L655 705H105ZM414 388L690 112V663L414 388Z" />
<glyph unicode=" " glyph-name="space" horiz-adv-x="333" />
<glyph unicode="!" glyph-name="exclam" horiz-adv-x="319" d="M117 0V84H201V0H117ZM117 722H201L192 175H125L118 671L117 722Z" />
<glyph unicode="&quot;" glyph-name="quotedbl" horiz-adv-x="500" d="M126 722H204L196 363V362H135L126 722ZM294 722H372L363 362H302V363L294 722Z" />
<glyph unicode="#" glyph-name="numbersign" horiz-adv-x="833" d="M56 150Q56 180 93 180H258L291 320H91Q56 321 56 350Q56 381 96 381H307L382 683Q382 683 384 688Q385 693 385 696T389 705T395 713T403 719T416 722Q428 722 436 714T446 693Q446 684 442
670L370 381H527L601 683L602 688Q604 693 604 696T608 705T614 713T622 719T635 722Q647 722 655 713T665 692Q665 680 662 670L590 381H726Q754 381 763 375Q776 365 776 350Q776 320 739 320H574L540 180H741Q755 180 763 174T774 162T776 150Q776 119 736 119H525L450
-183L449 -186Q448 -190 448 -192T446 -199T443 -205T439 -211T433 -217T426 -220T416 -222Q404 -222 396 -213T386 -192Q386 -184 390 -170L461 119H305L230 -183L229 -186Q228 -190 228 -192T226 -199T223 -205T219 -211T213 -217T206 -220T196 -222Q184 -222
176 -213T166 -192Q166 -184 170 -170L242 119H105Q76 119 68 125Q56 134 56 150ZM321 180H477L511 320H355L321 180Z" />
<glyph unicode="$" glyph-name="dollar" horiz-adv-x="500" d="M44 61L56 130Q102 93 135 78T220 55V337H219Q158 351 120 387T68 459T55 534Q55 605 99 661T220 731V750H279V732Q359 724 427 675L415 609Q348 661 279 667V414Q325 403 359 379T410 323T435 263T443
203Q443 123 397 63T279 -8V-28H220V-10Q122 0 44 61ZM128 547Q128 510 150 477T220 430V665H219Q171 649 150 616T128 547ZM279 58Q328 74 349 112T370 190T350 267T279 322V58Z" />
<glyph unicode="%" glyph-name="percent" horiz-adv-x="833" d="M55 471T55 556T98 695T195 750Q251 750 292 694T333 555Q333 474 293 418T195 361Q140 361 98 416ZM130 548Q130 441 188 424L198 423Q225 425 244 462T263 556Q263 611 244 649T191 688Q165 685
148 654T130 556V548ZM176 -7Q176 -5 185 13L620 737Q627 749 639 749Q647 749 652 744T658 730Q658 721 646 702L221 -5Q221 -6 218 -10T213 -16T209 -21T203 -26T196 -27Q188 -27 182 -21T176 -7ZM499 82T499 167T542 306T640 361T736 305T777 166Q777 85 737
29T639 -28Q584 -28 542 27ZM574 159Q574 52 632 35L642 34Q669 36 688 73T707 167Q707 222 688 260T635 299Q609 296 592 265T574 167V159Z" />
<glyph unicode="&amp;" glyph-name="ampersand" horiz-adv-x="758" d="M41 150Q41 169 44 185T56 217T71 244T95 273T122 299T157 331T194 365Q161 455 161 541Q161 630 199 687T300 744Q359 744 394 694T429 584Q429 543 398 491T277 358Q325 256 436 125Q553
227 602 405L666 389Q619 206 484 81Q532 50 555 45Q570 42 587 42Q635 42 701 60V-7Q646 -22 587 -22Q501 -22 426 37H425Q335 -22 224 -22Q144 -22 93 29T41 150ZM119 158Q119 113 147 78T226 42Q301 42 376 83Q265 213 220 305Q212 298 196 284T173 263T156
246T140 227T129 208T121 184T119 158ZM226 576Q226 505 253 420Q360 517 360 585Q360 620 346 651T299 683Q272 683 249 657T226 576Z" />
<glyph unicode="&apos;" glyph-name="quotesingle" horiz-adv-x="278" d="M99 722H177L171 465L169 363V362H108L107 363L99 722Z" />
<glyph unicode="(" glyph-name="parenleft" horiz-adv-x="389" d="M80 250Q80 579 271 750H333Q277 690 252 648Q158 490 158 250Q158 -51 301 -216L333 -250H271Q80 -77 80 250Z" />
<glyph unicode=")" glyph-name="parenright" horiz-adv-x="389" d="M55 -250Q81 -222 97 -203T141 -138T186 -43T216 83T230 250Q230 343 215 424T184 552T136 647T93 709T55 750H116Q308 578 308 251Q308 -78 116 -250H55Z" />
<glyph unicode="*" glyph-name="asterisk" horiz-adv-x="500" d="M64 435Q64 451 76 460T152 502Q181 517 199 527V528Q178 539 146 556Q89 586 77 595T64 620Q64 632 73 643T97 655Q109 655 125 645L223 576Q215 699 215 713Q215 733 226 741T250 750Q261 750
272 742T284 715Q284 711 276 576Q383 651 391 654Q395 655 399 655Q414 655 424 645T435 620Q435 604 423 595T347 553Q318 538 300 528V527Q321 516 353 499Q410 469 422 460T435 435Q435 423 426 412T402 401Q388 401 375 410L276 480Q284 357 284 343Q284 324
273 315T250 306Q236 306 226 316T215 340Q215 342 215 347T216 362T217 386T219 425T223 480Q115 404 109 402Q105 400 100 400Q85 400 75 410T64 435Z" />
<glyph unicode="+" glyph-name="plus" horiz-adv-x="778" d="M55 238T55 250T62 269T77 279T102 281H358V538Q358 583 388 583Q419 583 419 538V281H679Q721 281 721 250Q721 220 681 220H419V-38Q419 -83 389 -83Q377 -83 369 -76T359 -60Q358 -56 358 -38V220H100Q96
219 92 219Q73 219 64 228Z" />
<glyph unicode="," glyph-name="comma" horiz-adv-x="278" d="M96 0V84H180V14L179 0L138 -125H96L122 0H96Z" />
<glyph unicode="-" glyph-name="hyphen" horiz-adv-x="333" d="M10 193V252H276V193H10Z" />
<glyph unicode="." glyph-name="period" horiz-adv-x="278" d="M96 0V84H180V0H96Z" />
<glyph unicode="/" glyph-name="slash" horiz-adv-x="500" d="M56 -219Q56 -212 65 -186L381 720Q391 749 413 749Q425 749 434 741T443 719Q443 712 436 691L118 -220Q106 -250 86 -250Q74 -250 65 -241T56 -219Z" />
<glyph unicode="0" glyph-name="zero" horiz-adv-x="500" d="M41 310V327Q41 366 42 395T52 471T74 552T117 618T186 666Q217 678 249 678Q277 678 303 671T358 641T408 583T444 487T458 345V324Q458 286 457 256T447 180T425 101T381 36T312 -11Q279 -22 249
-22Q221 -22 196 -15T141 13T90 70T55 167T41 310ZM119 310Q119 243 128 193T150 114T181 68T216 45T250 39Q273 39 293 49T334 86T367 170T380 311V370Q380 446 368 498T334 574T292 607T249 616T206 607T165 574T132 498T119 370V310Z" />
<glyph unicode="1" glyph-name="one" horiz-adv-x="500" d="M90 554V612Q210 612 281 678H300V59H425V0H95V59H220V577Q161 554 90 554Z" />
<glyph unicode="2" glyph-name="two" horiz-adv-x="500" d="M41 514Q90 678 235 678Q331 678 390 615T449 464Q449 429 440 400T403 339T354 286T282 221Q255 197 121 70L449 71V0H49V65L179 194Q187 202 213 226T249 258T279 288T309 321T331 352T351 387T361
421T366 461Q366 525 326 569T222 613Q188 613 162 598T122 560T100 515T88 476L84 459L41 514Z" />
<glyph unicode="3" glyph-name="three" horiz-adv-x="500" d="M41 81L52 142Q84 99 127 74T196 45T244 40Q299 40 333 80T367 182Q367 240 335 281T239 323H166V385Q190 387 207 388T230 390T238 391Q286 400 316 439T347 525Q347 567 319 592T246 618Q158 618
107 543Q101 534 91 514L55 569Q124 678 248 678Q324 678 376 633T429 525Q429 417 318 354Q387 330 422 283T457 180Q457 99 397 39T245 -22Q122 -22 41 81Z" />
<glyph unicode="4" glyph-name="four" horiz-adv-x="500" d="M27 171Q27 171 27 219Q27 231 38 250L280 655H372V232H471V171H372V0H292V171H27ZM105 232H298V618Q292 581 270 530T227 444T139 291Q117 253 105 232Z" />
<glyph unicode="5" glyph-name="five" horiz-adv-x="500" d="M38 76L72 132Q128 40 228 40Q278 40 318 78T359 205Q359 287 330 326T257 366Q189 366 147 286H79V655H416V591H152V386Q203 427 259 427Q336 427 392 363T449 204Q449 108 384 43T229 -22Q172 -22
121 4T38 76Z" />
<glyph unicode="6" glyph-name="six" horiz-adv-x="500" d="M42 323Q42 473 118 575T309 678Q361 678 416 658V598Q359 619 309 619Q251 619 208 579T147 487T126 380Q157 419 202 440T295 462Q361 462 404 401Q457 327 457 224Q457 113 388 40Q330 -22 252 -22Q224
-22 198 -14T142 17T92 76T56 176T42 323ZM127 220Q146 40 251 40Q302 40 331 74T370 151Q375 173 375 218Q375 305 347 349Q314 401 256 401Q200 401 164 356T128 247Q128 238 130 220H127Z" />
<glyph unicode="7" glyph-name="seven" horiz-adv-x="500" d="M41 585V656L457 655V590Q351 468 294 311T236 -11H151Q151 147 209 300T389 585H41Z" />
<glyph unicode="8" glyph-name="eight" horiz-adv-x="500" d="M41 180Q41 236 75 282T180 354Q132 369 94 407T55 503Q55 573 111 625T249 678Q332 678 387 625T443 503Q443 456 412 417T318 354Q373 337 415 292T457 179Q457 99 397 39T249 -22Q162 -22 102 38T41
180ZM122 181Q122 117 157 79T249 40Q304 40 340 78T376 182Q376 245 341 284T249 323Q200 323 161 288T122 181ZM125 502Q125 449 159 417T248 385Q304 385 338 417T373 502Q373 555 339 587T249 619Q193 619 159 587T125 502Z" />
<glyph unicode="9" glyph-name="nine" horiz-adv-x="500" d="M42 435Q42 545 114 618Q173 678 252 678Q287 678 319 664T384 615T437 508T457 333Q457 179 384 79T205 -22Q133 -22 72 24L103 78Q104 77 111 72T121 65T131 59T142 53T155 48T170 44T187 41T207
40Q275 41 320 105T373 276Q303 193 204 193Q139 193 96 254Q42 330 42 435ZM124 435Q124 389 130 360T156 301Q188 255 243 255Q299 255 335 300T371 410Q371 427 370 436H372Q370 466 364 493T346 551T309 600T253 618Q201 618 171 583T130 507Q124 483 124 435Z"
/>
<glyph unicode=":" glyph-name="colon" horiz-adv-x="278" d="M96 0V84H180V0H96ZM96 361V445H180V361H96Z" />
<glyph unicode=";" glyph-name="semicolon" horiz-adv-x="278" d="M96 0V84H180V14L179 0L138 -125H96L122 0H96ZM96 361V445H180V361H96Z" />
<glyph unicode="&lt;" glyph-name="less" horiz-adv-x="778" d="M83 250Q85 262 90 268T117 286L643 552Q657 558 663 558Q676 558 684 549T693 528Q693 523 691 518T688 510T681 504T674 499T666 494L659 491L182 250L659 9L666 6Q672 2 673 1T680 -3T687 -10T691
-18T693 -28Q693 -40 685 -49T663 -58Q656 -58 624 -42L117 214Q96 225 91 230T83 250Z" />
<glyph unicode="=" glyph-name="equal" horiz-adv-x="778" d="M56 119T56 150T92 181Q94 181 97 181T102 180H683Q721 180 721 150Q721 119 680 119H95Q56 119 56 150ZM56 350Q56 381 96 381H681Q721 381 721 350Q721 344 719 339T708 327T684 320H93Q78 320 69
326T58 338T56 350Z" />
<glyph unicode="&gt;" glyph-name="greater" horiz-adv-x="778" d="M83 -28Q83 -23 85 -18T89 -10T96 -4T103 1T111 5T118 9L595 250L118 491Q117 492 111 495T103 499T96 503T89 510T85 518T83 528Q83 540 92 549T114 558Q121 558 153 542L660 286Q680 276 685
270T693 250Q691 237 686 231T660 214L135 -51Q119 -58 114 -58Q101 -58 92 -49T83 -28Z" />
<glyph unicode="?" glyph-name="question" horiz-adv-x="472" d="M55 677Q132 733 223 733Q279 733 319 718T379 676T407 625T416 571Q416 550 412 532T402 501T387 476T372 457T358 444T347 434Q255 345 255 215V175H188V207Q188 265 198 313T227 393T260 446T295
485T318 508Q338 535 338 572Q338 672 223 672Q143 672 78 614L55 677ZM180 0V84H264V0H180Z" />
<glyph unicode="@" glyph-name="at" horiz-adv-x="667" d="M55 362Q55 519 154 626T385 733Q431 733 467 718T527 680T566 623T591 558T604 487T609 423T610 368Q610 258 555 192T425 126Q349 126 295 194T240 361Q240 458 294 527T425 597Q462 597 510 570Q473
672 386 672Q287 672 209 584T130 361Q130 232 205 142T391 51Q447 51 499 69T558 88H610Q522 -11 388 -11Q253 -11 154 96T55 362ZM315 362Q315 285 348 236T426 187Q467 187 501 235T535 360T502 486T424 535Q382 535 349 487T315 362Z" />
<glyph unicode="A" glyph-name="A" horiz-adv-x="667" d="M27 0L288 694H377L637 0H545L468 204H178L102 0H27ZM199 260H447Q329 587 323 624Q310 563 199 260Z" />
<glyph unicode="B" glyph-name="B" horiz-adv-x="667" d="M96 0V694H318Q387 694 440 677T523 633T567 577T582 520Q582 470 539 427T414 363Q494 350 552 303T610 188Q610 115 547 63T395 2Q378 0 344 0H96ZM180 56H322Q424 56 476 98T528 189Q528 244 476 283T351
329Q342 330 300 330H181L180 293V56ZM180 392H300Q394 392 448 431T503 519Q503 563 452 600T295 638H181L180 603V392Z" />
<glyph unicode="C" glyph-name="C" horiz-adv-x="639" d="M66 347Q66 429 94 500T169 617T270 689T379 716Q418 716 440 715T499 706T577 682L562 599Q517 626 482 639T392 652Q292 652 224 563T156 347Q156 219 224 131T395 42Q414 42 431 43T460 46T486 53T508
60T528 70T545 80T564 91T582 103L588 33Q534 1 495 -10T394 -22Q251 -22 159 88T66 347Z" />
<glyph unicode="D" glyph-name="D" horiz-adv-x="722" d="M95 0V694H341Q441 694 513 647Q586 599 626 517T666 342Q666 203 584 109T391 2Q375 0 343 0H95ZM182 56H325Q450 56 520 148Q579 225 579 341Q579 468 513 553T325 638H182V56Z" />
<glyph unicode="E" glyph-name="E" horiz-adv-x="597" d="M94 0V691H541V625H484L459 626H219L184 627V390H514V329H184V70H269L293 71H487L509 72H555V0H94Z" />
<glyph unicode="F" glyph-name="F" horiz-adv-x="569" d="M94 0V691H527V625H472L448 626H216L184 627V376H485V315H184V0H94Z" />
<glyph unicode="G" glyph-name="G" horiz-adv-x="667" d="M66 347Q66 501 160 608T391 716Q495 716 591 668L576 585Q547 607 528 618T473 641T393 652Q290 652 223 562T156 348Q156 220 224 131T392 42Q444 42 521 63V237H388V299H599V26Q499 -22 391 -22Q254
-22 160 86T66 347Z" />
<glyph unicode="H" glyph-name="H" horiz-adv-x="708" d="M94 0V694H184V392H524V694H614V0H524V330H184V0H94Z" />
<glyph unicode="I" glyph-name="I" horiz-adv-x="278" d="M94 0V694H184V0H94Z" />
<glyph unicode="J" glyph-name="J" horiz-adv-x="472" d="M41 20L54 95Q72 79 80 72T119 53T183 40Q233 40 267 66T301 157V694H388V155Q388 104 373 68T330 13T274 -14T212 -22Q124 -22 41 20Z" />
<glyph unicode="K" glyph-name="K" horiz-adv-x="694" d="M95 0V694H181V323L544 694H637L369 420V419L651 0H557L314 363L181 228V0H95Z" />
<glyph unicode="L" glyph-name="L" horiz-adv-x="542" d="M94 0V694H184V65H379L499 66V0H94Z" />
<glyph unicode="M" glyph-name="M" horiz-adv-x="875" d="M100 0V694H214L368 293Q432 119 437 92H438Q443 127 506 292L660 694H775V0H697V592L696 624L686 587L626 423L472 22H400L250 411Q186 585 178 624V0H100Z" />
<glyph unicode="N" glyph-name="N" horiz-adv-x="708" d="M95 0V694H220L494 150L533 70V694H611V0H486L212 544L173 624V0H95Z" />
<glyph unicode="O" glyph-name="O" horiz-adv-x="736" d="M55 345Q55 500 147 608T368 716Q494 716 586 608T679 345Q679 188 586 83T367 -22Q241 -22 148 83T55 345ZM145 490T145 359T207 136T367 43Q462 43 526 134T590 359Q590 490 524 571T367 652Q277 652 211 571Z" />
<glyph unicode="P" glyph-name="P" horiz-adv-x="639" d="M95 0V694H331Q423 694 485 655Q531 626 556 584T582 493Q582 415 518 352T335 288Q330 288 319 288T302 289H185V0H95ZM182 347H315Q367 347 406 361T464 398T492 445T501 493Q501 515 493 537T467 584T409
623T315 638H182V347Z" />
<glyph unicode="Q" glyph-name="Q" horiz-adv-x="736" d="M55 345Q55 504 148 610T367 716Q494 716 587 608T680 345Q680 151 533 33L652 -125H547L463 -5Q410 -22 367 -22Q239 -22 147 84T55 345ZM142 344Q142 215 207 129T368 42Q384 42 424 51L323 195H412L490
90H491Q593 182 593 344Q593 477 528 564T366 652H365Q268 650 205 562T142 344Z" />
<glyph unicode="R" glyph-name="R" horiz-adv-x="646" d="M95 0V694H321Q393 694 447 676T531 628T575 568T589 508Q589 450 545 400T418 326L617 0H527L340 316H182V0H95ZM182 378H314Q419 378 463 417T508 507Q508 529 499 550T470 591T411 625T317 638H182V378Z" />
<glyph unicode="S" glyph-name="S" horiz-adv-x="555" d="M44 47L59 130Q164 47 273 47Q338 47 378 87T419 179Q419 218 396 250T333 299Q331 300 209 332Q148 348 102 397T55 519Q55 596 117 656T281 716Q375 716 464 668L450 585Q408 617 372 633T280 649Q215
649 175 614T135 531Q135 496 157 467T215 424Q229 418 287 404T365 382Q420 359 459 309T499 189Q499 104 436 41T273 -22Q153 -22 44 47Z" />
<glyph unicode="T" glyph-name="T" horiz-adv-x="680" d="M35 623V689H643V623H501L384 624V0H295V624L177 623H35Z" />
<glyph unicode="U" glyph-name="U" horiz-adv-x="687" d="M94 245V694H184V279Q184 273 184 262T183 244Q183 183 199 139T242 74T294 43T346 34Q374 34 401 44T455 76T498 140T515 240Q515 243 515 249T514 258V694H593V241Q593 177 571 125T512 42T432 -5T346
-22Q302 -22 259 -6T179 41T118 125T94 245Z" />
<glyph unicode="V" glyph-name="V" horiz-adv-x="667" d="M14 694H107L260 300Q333 103 341 70Q347 109 419 295L574 694H652L379 0H287L14 694Z" />
<glyph unicode="W" glyph-name="W" horiz-adv-x="944" d="M14 694H101L217 287Q263 117 268 70Q272 114 320 290L435 694H517L635 283L664 175L683 96L687 70Q689 103 740 289L857 694H929L726 0H639L532 369Q477 572 469 624Q467 604 453 546T425 439T410 388L298
0H218L14 694Z" />
<glyph unicode="X" glyph-name="X" horiz-adv-x="667" d="M14 0L282 365V366L28 694H133L326 433L514 694H610L369 366V365L652 0H547L326 305L110 0H14Z" />
<glyph unicode="Y" glyph-name="Y" horiz-adv-x="667" d="M2 694H107L254 481Q334 361 341 348Q376 410 574 694H662L376 278V0H289V278L2 694Z" />
<glyph unicode="Z" glyph-name="Z" horiz-adv-x="611" d="M55 0V25Q55 39 56 44T68 63L440 632L276 631H69V694H555V670Q555 667 555 665T555 660T554 656T554 653T553 650T551 647T549 643T546 639T542 633L170 65H378L401 66H560V0H55Z" />
<glyph unicode="[" glyph-name="bracketleft" horiz-adv-x="289" d="M100 -250V750H266V689H175V-189H266V-250H100Z" />
<glyph unicode="\" glyph-name="backslash" horiz-adv-x="500" d="M56 719Q56 731 65 740T86 749Q97 749 104 742T114 730T121 711L438 -197Q443 -214 443 -219Q443 -229 436 -239T413 -249Q401 -249 393 -241T383 -227T376 -206L57 709Q56 713 56 719Z" />
<glyph unicode="]" glyph-name="bracketright" horiz-adv-x="289" d="M21 -189H111V689H21V750H187V-250H21V-189Z" />
<glyph unicode="^" glyph-name="asciicircum" horiz-adv-x="611" d="M133 445L274 630H336L477 445H416L305 581L194 445H133Z" />
<glyph unicode="_" glyph-name="underscore" horiz-adv-x="778" d="M84 -248T84 -228T111 -208H660Q693 -208 693 -229Q693 -248 665 -248H112Q84 -248 84 -228Z" />
<glyph unicode="`" glyph-name="grave" horiz-adv-x="500" d="M97 640H175L308 510H247L97 640Z" />
<glyph unicode="a" glyph-name="a" horiz-adv-x="480" d="M44 113Q44 150 72 177T145 218T234 238T322 245V279Q320 343 296 371Q271 401 233 401Q156 401 83 350L77 417Q152 461 234 461Q303 461 349 416T400 305V0H324V35Q320 31 306 22T249 1T158 -11Q101 -11
73 29T44 113ZM117 114Q117 87 143 69T210 51Q253 51 287 69T322 130V193Q291 193 259 189T193 177T138 153T117 114Z" />
<glyph unicode="b" glyph-name="b" horiz-adv-x="517" d="M81 0V722H156V397Q229 455 316 455Q388 455 434 386T480 224Q480 123 425 56T293 -11Q222 -11 159 46V0H81ZM159 133Q159 125 159 121T161 112T164 106T169 99T176 90Q209 50 258 50Q311 50 356 92T401
223Q401 270 388 305T354 359T310 385T266 394Q227 394 193 371T159 320V133Z" />
<glyph unicode="c" glyph-name="c" horiz-adv-x="444" d="M35 223Q35 316 95 388T255 461Q302 461 333 452T410 417L398 351Q349 382 323 389Q294 397 254 397Q186 397 150 346T113 223Q113 149 152 101T253 53Q331 53 410 107L415 40Q336 -11 252 -11Q160 -11
98 57T35 223Z" />
<glyph unicode="d" glyph-name="d" horiz-adv-x="517" d="M35 221Q35 320 87 388T213 456Q289 456 358 401V722H434V0H355V52Q290 -11 207 -11Q133 -11 84 58T35 221ZM113 222Q113 133 155 92T248 51Q290 51 322 79T355 134V325Q355 344 334 364Q302 394 260 394H258Q234
394 211 385T164 358T127 304T113 222Z" />
<glyph unicode="e" glyph-name="e" horiz-adv-x="444" d="M34 226Q34 325 94 393T236 461Q266 461 293 452T347 420T393 354T414 249V220H104Q107 145 150 98T252 51Q328 51 404 106L410 40Q334 -11 252 -11Q157 -11 96 59T34 226ZM109 275H357Q351 314 336 341T301
379T266 395T236 399Q185 399 152 360T109 275Z" />
<glyph unicode="f" glyph-name="f" horiz-adv-x="305" d="M27 386V445H101V518Q101 522 101 530T100 542Q100 634 150 683T268 733Q305 733 347 722V655Q304 672 266 672Q232 672 203 652T173 581V445H286V386H176V0H101V386H27Z" />
<glyph unicode="g" glyph-name="g" horiz-adv-x="500" d="M27 -71Q27 -6 91 32Q66 68 66 108Q66 153 95 192V193Q62 236 62 292Q62 363 109 409T221 455Q272 455 319 422L317 424Q391 455 474 455L485 392Q455 395 426 395Q423 395 351 391L342 399Q381 346 381
292Q381 227 335 178T221 129Q177 129 130 159Q119 137 119 122Q119 102 131 86T175 69H250Q285 69 309 67T370 56T431 25T466 -33Q471 -53 471 -70Q471 -128 406 -167T249 -206Q156 -206 92 -167T27 -71ZM97 -71Q97 -97 124 -115T184 -141T248 -149Q311 -149 356
-128T401 -72Q401 -3 252 -3H189L160 -4Q131 -7 114 -27T97 -71ZM132 292Q132 244 156 216T222 187Q256 187 283 211T311 293Q311 341 287 369T221 398Q187 398 160 374T132 292Z" />
<glyph unicode="h" glyph-name="h" horiz-adv-x="517" d="M80 0V722H155V384Q215 455 299 455Q337 455 364 443T404 415T425 373T434 330T436 288V0H358V281Q358 298 358 308T352 336T337 366T308 385T260 394Q207 394 183 349T158 240V0H80Z" />
<glyph unicode="i" glyph-name="i" horiz-adv-x="239" d="M81 0V445H156V0H81ZM74 590V679H164V590H74Z" />
<glyph unicode="j" glyph-name="j" horiz-adv-x="267" d="M-61 -171L-46 -110Q-7 -141 32 -141Q61 -141 81 -127T108 -91Q110 -82 110 -65V445H185V-50Q185 -133 146 -169T59 -205Q-2 -205 -61 -171ZM96 590V679H186V590H96Z" />
<glyph unicode="k" glyph-name="k" horiz-adv-x="489" d="M83 0V722H155V236L359 445H449L281 273L471 0H389L233 224L153 142V0H83Z" />
<glyph unicode="l" glyph-name="l" horiz-adv-x="239" d="M81 0V722H156V0H81Z" />
<glyph unicode="m" glyph-name="m" horiz-adv-x="794" d="M80 0V450H153V380Q211 455 299 455Q396 455 426 374Q487 455 577 455Q615 455 642 443T683 414T704 371T713 329T714 288V0H635V281Q635 283 635 287T633 303T628 325T617 349T600 371T574 387T538 394Q485
394 461 349T436 240V0H358V281Q358 298 358 308T352 336T337 366T308 385T260 394Q207 394 183 349T158 240V0H80Z" />
<glyph unicode="n" glyph-name="n" horiz-adv-x="517" d="M80 0V450H153V380Q211 455 299 455Q336 455 362 444T403 417T424 377T434 333T436 288V0H358V281Q358 298 358 308T352 336T337 366T308 385T260 394Q207 394 183 349T158 240V0H80Z" />
<glyph unicode="o" glyph-name="o" horiz-adv-x="500" d="M30 221Q30 322 94 391T249 461Q343 461 406 389T469 220Q469 121 403 55T249 -11T96 55T30 221ZM108 231Q108 143 150 98T249 53T347 98T390 231Q390 315 348 357T249 399Q194 399 151 357T108 231Z" />
<glyph unicode="p" glyph-name="p" horiz-adv-x="517" d="M81 -195V445H156V396Q229 455 322 455Q391 455 435 386T480 224Q480 121 425 55T294 -11Q220 -11 159 46V-195H81ZM159 126Q159 104 187 77T256 50Q312 50 356 98T401 222Q401 290 363 340T265 391Q254
391 244 390T226 385T210 378T196 370T184 361T175 352T168 344T162 338L159 334V126Z" />
<glyph unicode="q" glyph-name="q" horiz-adv-x="517" d="M35 221Q35 322 90 388T221 455T358 388V455H434V-195H355V50Q288 -11 204 -11Q133 -11 84 57T35 221ZM113 221Q113 150 153 101T249 51Q290 51 324 79T358 138V285Q358 316 332 353T259 391Q202 391 158
343T113 221Z" />
<glyph unicode="r" glyph-name="r" horiz-adv-x="342" d="M81 0V450H151V360Q163 379 180 396T237 434T326 455V388Q300 387 274 379T220 352T174 295T156 206V0H81Z" />
<glyph unicode="s" glyph-name="s" horiz-adv-x="383" d="M27 34L39 102Q41 101 52 95T68 85T86 76T109 67T134 59T163 54T196 52Q246 52 267 73T289 120Q289 145 271 161T233 184Q223 187 189 194T137 206Q96 219 65 250T33 329Q33 352 40 372T63 414T114 448T197
461Q269 461 343 430L332 364Q331 365 321 369T309 375T298 380T285 385T272 389T258 393T244 396T227 399T209 400T188 401Q142 401 123 383T104 340Q104 307 130 293T205 270T273 252Q309 236 334 204T360 127Q360 104 353 82T330 38T279 3T197 -11Q109 -11 27
34Z" />
<glyph unicode="t" glyph-name="t" horiz-adv-x="361" d="M18 386V445H104V571H174V445H315V386H174V140Q174 53 228 53Q270 53 316 86L332 27Q261 -11 184 -11Q102 -11 102 117V386H18Z" />
<glyph unicode="u" glyph-name="u" horiz-adv-x="517" d="M80 122V445H158V110Q159 75 174 60T238 45Q290 45 321 72T357 136Q358 146 358 165V445H436V0H360V48Q292 -11 185 -11Q155 -11 134 -2T103 20T87 53T81 87T80 122Z" />
<glyph unicode="v" glyph-name="v" horiz-adv-x="461" d="M14 445H91L184 201Q227 79 232 50Q240 101 372 445H446L274 0H186L14 445Z" />
<glyph unicode="w" glyph-name="w" horiz-adv-x="683" d="M14 445H89Q186 137 197 50Q200 112 303 445H374L447 201Q482 75 485 50Q490 99 596 445H669L531 0H444Q376 225 360 282T337 394Q335 343 231 0H152L14 445Z" />
<glyph unicode="x" glyph-name="x" horiz-adv-x="461" d="M0 0L194 228V230L6 445H89L227 280H228L361 445H444L260 230V229L460 0H377L227 188L83 0H0Z" />
<glyph unicode="y" glyph-name="y" horiz-adv-x="461" d="M14 445H93Q157 298 189 215T226 111T238 50Q240 120 371 445H446L229 -90Q200 -157 175 -181T114 -205Q73 -205 41 -197L36 -132Q89 -149 109 -149Q136 -149 149 -130T191 -42Q198 -25 202 -15Q206 -6
206 1T201 18L14 445Z" />
<glyph unicode="z" glyph-name="z" horiz-adv-x="435" d="M27 0V41L293 386L263 385H41V445H398V405L133 62H334L355 63H401V0H27Z" />
<glyph unicode="{" glyph-name="braceleft" horiz-adv-x="500" d="M52 219V281Q110 281 157 309T210 389V626Q210 638 212 650T225 681T254 715T309 739T393 750H446V689H422Q375 689 346 684T306 668T291 647T288 621V410Q288 373 276 344T246 299T205 271T163
255T127 250Q150 249 174 242T225 218T270 168T288 90V-125Q288 -157 315 -173T422 -189H446V-250H401Q330 -250 282 -229Q268 -223 257 -215T239 -200T226 -184T218 -169T213 -154T211 -140T210 -128V-119V88Q208 128 203 140Q187 178 145 198T52 219Z" />
<glyph unicode="|" glyph-name="bar" horiz-adv-x="278" d="M118 -220V720Q118 749 138 749T158 720V-220Q158 -249 138 -249T118 -220Z" />
<glyph unicode="}" glyph-name="braceright" horiz-adv-x="500" d="M52 -189Q54 -189 58 -189Q87 -189 104 -188T148 -184T190 -170T209 -143Q210 -138 210 -116V90Q210 135 227 168T272 217T324 241T371 250Q348 251 324 258T273 282T228 332T210 410V625Q210
657 183 673T75 689H52V750H101Q130 749 142 749T175 744T214 731Q228 725 240 717T259 702T272 686T280 670T285 655T287 641T288 629T288 619V412Q290 375 296 360Q312 322 353 302T446 281V219Q388 219 341 191T289 111L288 88V-119Q286 -159 279 -174Q260 -212
214 -231T105 -250H52V-189Z" />
<glyph unicode="~" glyph-name="asciitilde" horiz-adv-x="611" d="M83 557Q85 610 122 643T210 676Q245 676 306 648T399 619Q425 619 444 633T466 676H527Q525 623 488 590T400 557Q365 557 304 586T211 615Q185 615 166 601T144 557H83Z" />
</font>
</defs>
</svg>
