<?xml version="1.0" standalone="no"?> <!DOCTYPE svg PUBLIC "-//W3C//DTD SVG 1.0//EN" "http://www.w3.org/TR/2001/REC-SVG-20010904/DTD/svg10.dtd" > <svg xmlns="http://www.w3.org/2000/svg" width="100%" height="100%">
<defs >
<font id="cmunsi" horiz-adv-x="420" ><font-face
    font-family="CMU Sans Serif"
    units-per-em="1000"
    panose-1="2 0 6 3 0 0 0 0 0 0"
    ascent="900"
    descent="-250"
    alphabetic="0" />
<missing-glyph horiz-adv-x="760" d="M10 10V765H750V10H10ZM70 112L346 388L70 663V112ZM105 70H655L380 346L105 70ZM105 705L380 429L655 705H105ZM414 388L690 112V663L414 388Z" />
<glyph unicode=" " glyph-name="space" horiz-adv-x="333" />
<glyph unicode="!" glyph-name="exclam" horiz-adv-x="319" d="M117 0L135 84H218L201 0H117ZM162 175L270 722H354L229 175H162Z" />
<glyph unicode="&quot;" glyph-name="quotedbl" horiz-adv-x="500" d="M212 363L280 723H358L273 363H212ZM380 362L448 722H526L441 362H380Z" />
<glyph unicode="#" glyph-name="numbersign" horiz-adv-x="833" d="M88 150Q88 180 126 180H294L357 320H169Q153 320 149 322Q130 331 130 350Q130 381 170 381H386L527 687Q527 688 529 692T532 697T534 702T537 707T541 712T545 716T550 719T556 721T563 722Q576
722 584 713T593 691Q593 688 584 665L454 381H606L746 687Q750 696 752 699T758 709T769 719T783 722Q796 722 804 713T812 691Q812 685 804 665L673 381H803Q817 381 824 380Q851 376 851 350Q851 320 813 320H645L581 180H769Q808 180 808 150Q808 119 768 119H552L411
-188Q398 -217 383 -221Q379 -222 375 -222Q347 -222 346 -188Q347 -181 353 -167L485 119H332L192 -188Q179 -217 164 -221Q160 -222 156 -222Q151 -222 145 -221T133 -211T126 -188Q127 -181 133 -167L265 119H135Q122 119 115 120Q88 124 88 150ZM362 180H513L577
320H425L362 180Z" />
<glyph unicode="$" glyph-name="dollar" horiz-adv-x="500" d="M57 61L83 130Q119 95 148 79T232 55L291 337Q248 347 220 369T181 418T167 460T164 492Q164 570 222 642T375 731L379 750H438L434 732Q476 728 505 716T570 675L544 609Q487 661 420 667L367 414Q383
410 398 404T437 381T477 331T492 252Q492 160 428 83T277 -8L272 -28H214L217 -10Q124 0 57 61ZM242 522Q242 451 311 430L361 665H360Q304 648 273 608T242 522ZM291 58Q352 76 383 125T414 222Q414 296 347 322L291 58Z" />
<glyph unicode="%" glyph-name="percent" horiz-adv-x="833" d="M167 500Q167 593 225 671T354 750Q400 750 428 711T457 611Q457 519 399 440T272 361Q225 361 196 400T167 500ZM175 -7Q175 -1 189 19L774 736Q785 749 794 749Q802 749 808 743T814 730Q814 720
794 698L213 -16Q202 -27 194 -27T181 -21T175 -7ZM240 494Q240 461 252 442T285 422Q323 422 355 483T387 606Q387 640 376 664T341 688Q308 688 284 648T250 566T240 494ZM529 112Q529 205 587 283T716 361Q762 361 790 323T819 223Q819 130 761 51T634 -28Q587
-28 558 11T529 112ZM602 107Q602 34 649 34Q683 34 716 93T749 218Q749 255 736 277T702 300Q691 300 674 290Q636 265 619 206T602 107Z" />
<glyph unicode="&amp;" glyph-name="ampersand" horiz-adv-x="758" d="M70 116Q70 194 136 258Q146 268 273 365Q267 404 267 443Q267 572 324 658T459 744Q504 744 531 711T558 624Q558 574 529 525T404 397Q372 371 355 359Q366 308 401 237T465 125Q616 244
689 405L749 389Q659 203 502 81Q503 80 510 74T522 65T535 57T553 50T573 45T598 42Q647 42 715 60L701 -7Q637 -22 580 -22H578Q495 -22 435 37Q317 -22 221 -22Q151 -22 111 17T70 116ZM151 131Q151 94 172 68T235 42Q313 42 395 83Q314 199 286 305Q280 300
255 282T222 257T196 233T171 203T158 171T151 131ZM339 472Q339 470 339 466T341 450T343 420Q395 459 427 492T472 551T486 590T489 622Q489 655 476 669T446 683Q406 683 373 635T339 477V472Z" />
<glyph unicode="&apos;" glyph-name="quotesingle" horiz-adv-x="278" d="M185 362L253 722H331L246 362H185Z" />
<glyph unicode="(" glyph-name="parenleft" horiz-adv-x="389" d="M111 62Q111 228 180 409T381 710Q404 730 430 750H491Q282 584 210 250Q187 140 187 47Q187 -5 195 -51T210 -124T236 -183T258 -221T279 -250H217Q111 -129 111 62Z" />
<glyph unicode=")" glyph-name="parenright" horiz-adv-x="389" d="M2 -250Q218 -77 287 268Q306 365 306 454Q306 505 298 551T283 624T259 682T237 720T215 750H276Q296 727 306 712T338 657T371 561T382 437Q382 322 351 202T251 -37T85 -234Q66 -250 50 -250H2Z" />
<glyph unicode="*" glyph-name="asterisk" horiz-adv-x="500" d="M155 427Q155 447 171 458T257 503Q290 518 310 528Q209 589 204 593Q195 601 195 613Q195 628 208 641T237 655Q246 655 256 648T305 609Q329 589 345 576Q368 722 369 724Q381 750 408 750Q420
750 428 743T436 723Q436 717 398 575Q525 653 532 654Q534 655 538 655Q567 652 567 628Q567 608 551 597T458 550Q429 536 412 528V527Q516 465 521 459T527 442Q527 424 513 412T485 400Q476 400 461 411T403 458Q386 472 377 480Q374 462 372 441T367 408T363
380T359 356T354 338T348 323T339 314T328 308T314 306Q293 306 286 327Q285 334 324 480Q289 459 245 432Q206 408 199 404T183 400Q155 404 155 427Z" />
<glyph unicode="+" glyph-name="plus" horiz-adv-x="778" d="M109 250Q109 281 151 281H417L473 546Q480 583 506 583Q518 583 527 574T536 552Q536 551 533 533L479 281H738Q757 281 765 271T774 250Q774 238 767 231T751 221Q748 220 731 220H466L410 -46L409
-50Q408 -53 407 -57T404 -65T398 -74T390 -80T377 -83Q365 -83 356 -74T347 -52Q347 -50 350 -32L403 220H151Q134 220 129 222T114 233Q109 240 109 250Z" />
<glyph unicode="," glyph-name="comma" horiz-adv-x="278" d="M70 -125L122 0H97L115 84H198L184 15L180 0L112 -125H70Z" />
<glyph unicode="-" glyph-name="hyphen" horiz-adv-x="333" d="M51 193L64 252H330L317 193H51Z" />
<glyph unicode="." glyph-name="period" horiz-adv-x="278" d="M96 0L114 84H197L180 0H96Z" />
<glyph unicode="/" glyph-name="slash" horiz-adv-x="500" d="M9 -219Q9 -210 25 -181L532 723Q547 749 566 749Q578 749 587 741T596 720Q596 714 582 686L74 -220Q66 -234 60 -240T51 -248T39 -250Q27 -250 18 -241T9 -219Z" />
<glyph unicode="0" glyph-name="zero" horiz-adv-x="500" d="M90 170Q90 250 121 374Q141 454 171 513T231 603T294 652T350 674T393 678T433 674T473 657T510 624T536 567T547 484Q547 408 519 290Q500 212 472 153T416 62T354 10T295 -16T245 -22Q218 -22 194
-15T145 12T105 71T90 170ZM167 170Q167 95 194 67T258 39Q333 39 385 132Q421 196 447 311T473 490Q473 616 380 616Q325 616 281 568Q229 511 198 377T167 170Z" />
<glyph unicode="1" glyph-name="one" horiz-adv-x="500" d="M95 0L108 59H233L343 577Q281 554 207 554L220 612Q344 612 424 678H444L313 59H437L425 0H95Z" />
<glyph unicode="2" glyph-name="two" horiz-adv-x="500" d="M50 0Q52 11 54 23T58 41T61 52T63 60T66 65T71 70T78 76L244 212Q250 217 278 238T320 271T362 306T404 348T436 393T461 444T469 498Q469 551 437 582T353 613Q321 613 294 601T248 566T218 526T195
485T182 459L151 514Q158 532 174 556T217 609T288 658T380 678Q460 678 506 633T553 512Q553 474 541 440T514 383T466 328T412 281T344 231Q309 205 136 70L465 71L450 0H50Z" />
<glyph unicode="3" glyph-name="three" horiz-adv-x="500" d="M59 80L83 142L98 117L116 94Q137 77 151 68T193 50T254 40Q322 40 366 96T411 220Q411 261 388 292T309 323H235L248 385Q260 386 277 387T301 388T318 390T334 393T347 397T363 404Q410 427 435
469T461 547Q461 580 439 599T379 619Q333 619 290 596T217 536L201 514L176 568V569Q206 605 240 629T306 662T357 675T392 678Q457 678 500 643T544 553Q544 527 534 497T488 424T394 354Q448 334 474 297T500 215Q500 129 423 54T243 -22Q121 -22 59 80Z" />
<glyph unicode="4" glyph-name="four" horiz-adv-x="500" d="M64 171Q75 221 77 228T92 250L420 655H512L422 232H521L508 171H409L373 0H293L329 171H64ZM155 232H348L430 618Q408 561 355 488T155 232Z" />
<glyph unicode="5" glyph-name="five" horiz-adv-x="500" d="M55 77L100 132Q117 86 154 63T237 40Q255 40 275 46T322 67T372 120T405 211Q411 240 411 268Q411 311 392 338T336 366Q262 366 208 286H141L220 655H555L542 591H279L278 590L235 386Q295 427 350
427Q416 427 457 380T499 258Q499 144 414 61T224 -22Q169 -22 123 4T55 77Z" />
<glyph unicode="6" glyph-name="six" horiz-adv-x="500" d="M93 180Q93 232 106 305T150 442Q199 546 281 612T453 678Q504 678 556 658L543 598Q486 619 445 619Q371 619 307 558T207 380Q296 462 394 462Q429 462 453 445T496 385T514 299Q514 217 478 142Q467
120 448 95T400 42T331 -4T246 -22Q220 -22 196 -14T148 15T108 78T93 180ZM171 167Q171 40 260 40Q290 40 316 53T359 86T385 121T401 150Q411 173 421 218T432 292Q432 335 411 368T341 401Q281 401 233 349T177 220H174Q171 194 171 167Z" />
<glyph unicode="7" glyph-name="seven" horiz-adv-x="500" d="M150 -11Q187 168 287 322T515 585H166L181 656L597 655Q585 596 581 590Q579 586 562 570Q479 485 425 410Q283 212 234 -11H150Z" />
<glyph unicode="8" glyph-name="eight" horiz-adv-x="500" d="M75 141Q75 208 121 267T255 354Q208 369 183 402T158 475Q158 550 229 614T393 678Q462 678 507 638T553 534Q553 477 513 429T393 354Q436 340 467 304T499 215Q499 127 422 53T245 -22Q171 -22
123 23T75 141ZM156 141Q156 92 184 66T258 40Q329 40 374 96T419 221Q419 268 392 295T317 323Q250 323 203 269T156 141ZM228 475Q228 433 256 409T330 385Q397 385 440 428T483 529Q483 571 455 595T381 619Q312 619 270 575T228 475Z" />
<glyph unicode="9" glyph-name="nine" horiz-adv-x="500" d="M77 24L119 78Q135 65 141 60T168 47T213 40Q280 40 340 103T432 276Q346 193 245 193Q181 193 151 251Q125 300 125 357Q125 491 209 584T396 678Q472 678 509 623T546 478Q546 367 505 254Q461 134
377 56T201 -22Q127 -22 77 24ZM206 364Q206 347 209 331T222 296T250 267T297 255Q358 255 406 307T462 436H465Q469 440 469 496Q469 566 444 592T384 619Q334 619 292 581Q260 552 243 519T216 436Q206 388 206 364Z" />
<glyph unicode=":" glyph-name="colon" horiz-adv-x="278" d="M96 0L114 84H197L180 0H96ZM173 361L191 445H274L257 361H173Z" />
<glyph unicode=";" glyph-name="semicolon" horiz-adv-x="278" d="M70 -125L122 0H97L115 84H198L184 15L180 0L112 -125H70ZM174 361L192 445H275L258 361H174Z" />
<glyph unicode="&lt;" glyph-name="less" horiz-adv-x="778" d="M137 252Q140 266 145 271T174 287L755 552Q769 558 775 558Q787 558 796 549T805 527Q805 520 803 515T795 505T785 499T775 493T767 490L234 247L659 7Q687 -9 687 -28Q687 -40 678 -49T657 -58H656Q649
-58 636 -51T539 4L166 215Q153 223 147 229T139 240T137 252Z" />
<glyph unicode="=" glyph-name="equal" horiz-adv-x="778" d="M88 150Q88 160 94 169T112 180H715Q753 180 753 150Q753 119 712 119H128Q88 119 88 150ZM130 350Q130 381 170 381H755Q795 381 795 350Q795 344 793 339T782 327T758 320H167Q152 320 143 327T132
339T130 350Z" />
<glyph unicode="&gt;" glyph-name="greater" horiz-adv-x="778" d="M78 -28Q78 -18 85 -10T98 1T116 10L649 253Q639 258 581 291L224 493Q196 509 196 528Q196 540 205 549T226 558Q235 558 248 550L717 285Q730 277 736 271T744 260T746 248Q744 234 739 229T709
213L128 -52Q114 -58 107 -58Q95 -58 87 -49T78 -28Z" />
<glyph unicode="?" glyph-name="question" horiz-adv-x="472" d="M180 0L198 84H281L264 0H180ZM200 677Q287 733 381 733Q448 733 495 705T542 609Q542 502 439 433Q413 412 392 390T356 345T332 304T314 264T304 230T297 199T292 175H225Q236 226 242 250T270
323T328 415Q356 449 386 473T432 514T457 560Q463 581 463 602Q463 672 366 672Q288 672 209 614L200 677Z" />
<glyph unicode="@" glyph-name="at" horiz-adv-x="667" d="M122 272Q122 361 159 446T254 594T389 695T541 733Q710 733 710 536Q710 487 699 424T678 329Q650 242 585 184T452 126Q389 126 349 175T309 298Q309 415 386 506T551 597Q594 597 631 570Q618 672
528 672Q450 672 374 618T248 473T198 284Q198 182 254 117T400 51Q438 51 474 59T536 77L563 87Q567 88 588 88H628Q582 45 518 17T385 -11Q268 -11 195 70T122 272ZM385 305Q385 259 404 223T464 187Q520 187 569 259T618 417Q618 471 595 503T537 535Q483 535
434 464T385 305Z" />
<glyph unicode="A" glyph-name="A" horiz-adv-x="667" d="M27 0L435 694H524L637 0H545L512 204H222L102 0H27ZM254 260H503Q456 561 456 613V624Q441 590 410 533T320 374T254 260Z" />
<glyph unicode="B" glyph-name="B" horiz-adv-x="667" d="M96 0L243 694H467Q586 694 640 648T695 545Q695 488 642 437T491 363Q575 349 613 306T652 215Q652 166 622 125T548 55Q463 0 341 0H96ZM192 56H333Q444 56 507 104T570 208Q570 228 561 247T532 286T471
318T372 330H251L192 56ZM263 392H375Q493 392 555 439T615 537Q610 571 587 594T529 625T474 635T431 638H316L263 392Z" />
<glyph unicode="C" glyph-name="C" horiz-adv-x="639" d="M130 259Q130 343 164 426T255 573T388 676T545 716Q636 716 722 682L690 599Q653 626 618 639T530 652Q481 652 428 626T328 552T251 428T220 262Q220 172 267 107T402 42Q449 42 486 51T540 68T604 103L595
33Q533 1 493 -10T389 -22Q267 -22 199 59T130 259Z" />
<glyph unicode="D" glyph-name="D" horiz-adv-x="722" d="M95 0L242 694H493Q552 694 598 676T671 631T717 566T741 495T748 425Q748 270 642 145T397 2Q379 0 342 0H95ZM194 56H347Q475 56 568 166T661 428Q661 465 652 498T622 565T561 618T463 638H318L194 56Z" />
<glyph unicode="E" glyph-name="E" horiz-adv-x="597" d="M94 0L241 691H688L674 625H617L592 626H352L317 627L266 390H596L584 329H254L253 328L199 70H284L308 71H502L524 72H570L555 0H94Z" />
<glyph unicode="F" glyph-name="F" horiz-adv-x="569" d="M94 0L241 691H674L660 625H605L580 626H349L317 627L264 376H565L552 315H250L184 0H94Z" />
<glyph unicode="G" glyph-name="G" horiz-adv-x="667" d="M130 259Q130 373 187 479T341 650T544 716Q648 716 732 668L700 585Q698 587 689 595T675 606T660 617T642 628T621 637T596 645T566 650T530 652Q451 652 378 595T263 447T220 264Q220 174 266 108T401
42Q468 42 534 63L571 237H439L452 299H662L605 27Q501 -22 388 -22Q268 -22 199 59T130 259Z" />
<glyph unicode="H" glyph-name="H" horiz-adv-x="708" d="M94 0L241 694H331L267 392H607L671 694H761L614 0H524L594 330H254L184 0H94Z" />
<glyph unicode="I" glyph-name="I" horiz-adv-x="278" d="M94 0L241 694H331L184 0H94Z" />
<glyph unicode="J" glyph-name="J" horiz-adv-x="472" d="M45 20L75 95Q121 40 191 40Q204 40 218 42T252 51T290 74T320 113Q328 130 341 188L448 694H535L426 180Q419 144 415 128T396 83T358 33Q299 -22 208 -22Q121 -22 45 20Z" />
<glyph unicode="K" glyph-name="K" horiz-adv-x="694" d="M95 0L242 694H328L250 323L691 694H785L458 420L651 0H557L391 363L229 228L181 0H95Z" />
<glyph unicode="L" glyph-name="L" horiz-adv-x="542" d="M94 0L241 694H331L197 65H393L418 66H513L499 0H94Z" />
<glyph unicode="M" glyph-name="M" horiz-adv-x="875" d="M100 0L247 694H361L422 344Q454 145 457 92Q469 124 577 308L808 694H922L775 0H697L829 624L809 584L704 402L477 22H405L347 357Q313 568 310 623L178 0H100Z" />
<glyph unicode="N" glyph-name="N" horiz-adv-x="708" d="M95 0L242 694H368L536 117L548 70L680 694H758L611 0H486L353 452Q319 566 305 624L173 0H95Z" />
<glyph unicode="O" glyph-name="O" horiz-adv-x="736" d="M119 255Q119 370 177 477T328 650T520 716Q628 716 695 637T763 436Q763 319 705 212T553 42T363 -22Q255 -22 187 56T119 255ZM211 262Q211 163 256 103T377 43Q454 43 524 105T635 260T676 443Q676
539 628 595T506 652Q394 652 303 536T211 262Z" />
<glyph unicode="P" glyph-name="P" horiz-adv-x="639" d="M95 0L242 694H481Q542 694 586 677T652 633T682 580T691 528Q691 437 609 366T419 289H246L185 0H95ZM255 347H387Q498 347 553 402T609 522Q609 542 603 560T581 597T532 627T452 638H318L255 347Z" />
<glyph unicode="Q" glyph-name="Q" horiz-adv-x="736" d="M119 252Q119 371 178 479T330 652T520 716Q628 716 695 637T763 436Q763 317 701 207T540 34L625 -125H521L462 -5Q413 -22 363 -22Q255 -22 187 56T119 252ZM205 257Q205 161 252 102T376 42Q400 42
435 51L364 195H454L510 90Q584 140 630 238T677 436Q677 532 630 592T506 652Q429 652 359 593T247 443T205 257Z" />
<glyph unicode="R" glyph-name="R" horiz-adv-x="646" d="M95 0L242 694H471Q591 694 645 645T700 536Q700 470 644 412T488 326L617 0H527L407 316H249L182 0H95ZM262 378H395Q509 378 563 426T618 530Q618 577 581 605T481 638H318L262 378Z" />
<glyph unicode="S" glyph-name="S" horiz-adv-x="555" d="M54 47L87 130Q164 47 283 47Q357 47 408 96T460 204Q460 269 399 298Q383 305 333 317T262 338Q223 354 192 390T161 484Q161 570 241 643T432 716Q485 716 523 706T606 668L574 585Q536 621 509 632Q470
649 418 649Q345 649 295 605T245 510Q245 474 267 452T317 421T384 402T444 384Q486 365 515 326T544 231Q544 134 461 56T270 -22Q147 -22 54 47Z" />
<glyph unicode="T" glyph-name="T" horiz-adv-x="680" d="M168 623L182 689H790L776 623H634L518 624L385 0H295L428 624L310 623H168Z" />
<glyph unicode="U" glyph-name="U" horiz-adv-x="687" d="M137 179Q137 209 162 324L241 694H330L243 283Q226 204 226 172Q226 109 261 72T353 34Q416 34 473 79T555 202Q563 230 570 263L661 694H739L647 260Q640 225 634 205T608 146T556 76Q461 -22 341 -22Q252
-21 195 34T137 179Z" />
<glyph unicode="V" glyph-name="V" horiz-adv-x="667" d="M161 694H254L317 342Q353 125 356 70Q369 109 475 285L721 694H799L379 0H286L161 694Z" />
<glyph unicode="W" glyph-name="W" horiz-adv-x="944" d="M161 694H248L277 311L283 191L285 109L283 71Q296 121 386 300L583 694H664Q703 234 703 104Q703 91 702 70Q711 109 810 306L1005 694H1077L726 0H639Q600 456 600 585L601 623L587 586L506 416L298
0H217L161 694Z" />
<glyph unicode="X" glyph-name="X" horiz-adv-x="667" d="M14 0L360 365V367L175 694H280L417 433L661 694H758L447 365L652 0H547L390 306L110 0H14Z" />
<glyph unicode="Y" glyph-name="Y" horiz-adv-x="667" d="M150 694H255L363 466Q410 365 415 348L468 410L722 694H810L451 295Q435 278 432 263L376 0H289L345 264Q347 274 347 275Q347 280 340 294L150 694Z" />
<glyph unicode="Z" glyph-name="Z" horiz-adv-x="611" d="M55 0Q64 41 68 46Q70 49 81 63L575 632L410 631H203L216 694H702L697 670L692 654L684 642L184 65H392L415 66H574L560 0H55Z" />
<glyph unicode="[" glyph-name="bracketleft" horiz-adv-x="289" d="M47 -250L259 750H426L412 689H322L136 -189H226L213 -250H47Z" />
<glyph unicode="\" glyph-name="backslash" horiz-adv-x="500" d="M209 708V718Q209 732 218 740T239 749Q245 749 250 747T259 742T264 734T268 726T270 718T272 710V707L396 -207Q396 -209 396 -212T397 -218Q397 -232 388 -240T367 -249Q361 -249 356 -247T347
-242T342 -235T338 -226T336 -218T334 -211V-207L209 708Z" />
<glyph unicode="]" glyph-name="bracketright" horiz-adv-x="289" d="M-31 -250L-18 -189H73L259 689H169L182 750H348L135 -250H-31Z" />
<glyph unicode="^" glyph-name="asciicircum" horiz-adv-x="611" d="M227 445L407 630H470L571 445H510L428 581L288 445H227Z" />
<glyph unicode="_" glyph-name="underscore" horiz-adv-x="778" d="M36 -248T36 -228T63 -208H611Q639 -208 644 -220Q645 -224 645 -229Q645 -248 616 -248H64Q36 -248 36 -228Z" />
<glyph unicode="`" glyph-name="grave" horiz-adv-x="500" d="M233 640H311L417 510H355L233 640Z" />
<glyph unicode="a" glyph-name="a" horiz-adv-x="480" d="M65 85Q65 170 170 211Q255 245 374 245Q387 309 387 323Q387 352 372 376T319 401Q306 401 294 400T271 397T250 392T230 386T213 379T196 372T183 365T169 357T157 350L165 417Q249 461 331 461Q399
461 432 422T466 330Q466 321 458 275L400 0H324L331 35Q251 -11 154 -11Q106 -11 86 18T65 85ZM140 104Q140 82 161 67T219 51Q264 51 298 68T344 113Q348 124 362 193Q264 191 201 168Q140 145 140 104Z" />
<glyph unicode="b" glyph-name="b" horiz-adv-x="517" d="M81 0L234 722H310L241 397Q322 455 415 455Q471 455 503 409T535 292Q535 175 460 82T291 -11Q219 -11 169 46L159 0H81ZM185 116Q185 108 191 95T217 66T267 51Q342 51 398 117T455 278Q455 340 423
367T350 394Q296 394 242 347Q231 336 226 316Q185 123 185 116Z" />
<glyph unicode="c" glyph-name="c" horiz-adv-x="444" d="M77 170Q77 278 159 369T351 461Q403 461 431 452T499 417L474 351Q429 383 406 390Q380 397 341 397Q284 397 240 360T176 273T156 174Q156 121 184 87T264 53Q300 53 335 63T386 81T433 107L425 40Q335
-11 251 -11Q171 -11 124 40T77 170Z" />
<glyph unicode="d" glyph-name="d" horiz-adv-x="517" d="M75 155Q75 270 147 362T308 455Q385 455 444 401L512 722H587L434 0H355L366 52Q285 -11 204 -11Q141 -11 108 39T75 155ZM154 167Q154 105 186 78T260 51Q316 51 357 94Q375 112 378 118T385 140Q426
332 426 338Q426 345 419 357T391 381T342 394Q267 394 211 329T154 167Z" />
<glyph unicode="e" glyph-name="e" horiz-adv-x="444" d="M76 171Q76 281 156 371T334 461Q390 461 431 426T472 307Q472 277 461 220H151Q150 210 149 203T148 194T147 189T147 182Q147 125 179 88T263 50Q342 50 427 106L419 40Q333 -11 250 -11Q171 -11 124
41T76 171ZM168 275H416V288Q416 350 387 374T322 399Q274 399 232 362T168 275Z" />
<glyph unicode="f" glyph-name="f" horiz-adv-x="305" d="M100 0L182 386H109L121 445H195Q198 461 202 481T209 511T214 533T218 552T221 565T225 577T228 587T232 597T237 607Q245 623 257 640T292 681T349 718T423 733Q460 733 500 722L485 655Q438 672 408
672Q366 672 340 651T304 607Q300 599 267 445H380L368 386H257L175 0H100Z" />
<glyph unicode="g" glyph-name="g" horiz-adv-x="500" d="M10 -89Q10 -54 35 -21T98 32Q86 58 86 82Q86 140 136 192V193Q120 224 120 258Q120 335 181 395T318 455Q370 455 410 421L408 425Q493 455 571 455L569 392Q562 392 550 393T529 394T510 395Q500 395
434 391L428 399Q447 363 447 326Q447 252 387 191T249 129Q203 129 164 159Q144 131 144 109Q144 69 190 69H270Q294 69 307 68T346 64T389 54T423 36T450 4T459 -42Q459 -92 420 -130T325 -187T207 -206Q124 -206 67 -174T10 -89ZM81 -81Q81 -111 121 -130T218
-149Q283 -149 335 -125T387 -62Q387 -3 250 -3H176Q133 -3 107 -28T81 -81ZM190 260Q190 220 211 204T261 187Q315 187 346 230T377 325Q377 359 359 378T306 398Q252 398 221 355T190 260Z" />
<glyph unicode="h" glyph-name="h" horiz-adv-x="517" d="M80 0L233 722H309L237 384Q310 455 395 455Q506 455 506 355Q506 333 498 291L436 0H358L419 289Q424 311 424 328Q424 394 343 394Q308 394 280 370T238 320T216 267Q210 248 158 0H80Z" />
<glyph unicode="i" glyph-name="i" horiz-adv-x="239" d="M81 0L176 445H251L156 0H81ZM199 590L218 679H307L289 590H199Z" />
<glyph unicode="j" glyph-name="j" horiz-adv-x="267" d="M-97 -171L-69 -110Q-38 -141 2 -141Q26 -141 44 -133T72 -114T88 -91T96 -71L97 -63L205 445H280L180 -27Q167 -87 157 -107Q138 -145 102 -175T16 -205Q-43 -205 -97 -171ZM222 590L241 679H330L312 590H222Z" />
<glyph unicode="k" glyph-name="k" horiz-adv-x="489" d="M83 0L236 722H309L206 237L454 445H543L338 273L471 0H389L281 224L183 142L153 0H83Z" />
<glyph unicode="l" glyph-name="l" horiz-adv-x="239" d="M81 0L234 722H310L156 0H81Z" />
<glyph unicode="m" glyph-name="m" horiz-adv-x="794" d="M80 0L175 450H248L234 380Q309 455 395 455Q496 455 505 374Q586 455 673 455Q784 455 784 355Q784 334 776 292L714 0H635L697 290Q702 312 702 328Q702 394 621 394Q525 394 485 233L436 0H358L419
289Q424 311 424 328Q424 394 343 394Q308 394 280 370T238 320T216 267Q210 248 158 0H80Z" />
<glyph unicode="n" glyph-name="n" horiz-adv-x="517" d="M80 0L175 450H248L234 380Q309 455 395 455Q506 455 506 355Q506 333 498 291L436 0H358L419 289Q424 311 424 328Q424 394 343 394Q308 394 280 370T238 320T216 267Q210 248 158 0H80Z" />
<glyph unicode="o" glyph-name="o" horiz-adv-x="500" d="M71 169Q71 279 156 370T347 461Q424 461 472 408T521 274Q521 161 436 75T247 -11Q169 -11 120 40T71 169ZM151 176Q151 110 184 82T261 53Q339 53 392 125T445 280Q445 335 415 367T334 399Q255 399
203 331T151 176Z" />
<glyph unicode="p" glyph-name="p" horiz-adv-x="517" d="M40 -195L176 445H251L241 396Q326 455 418 455Q478 455 506 406T535 294Q535 176 461 83T292 -11Q219 -11 170 46L118 -195H40ZM185 117Q185 99 205 75T266 51Q336 51 395 115T454 265Q454 320 425 355T348
391Q309 391 275 370T232 333Q228 326 207 224T185 117Z" />
<glyph unicode="q" glyph-name="q" horiz-adv-x="517" d="M75 155Q75 272 150 363T317 455Q344 455 365 449T402 429T424 409T441 388L455 455H531L393 -195H315L366 50Q282 -11 202 -11Q140 -11 108 39T75 155ZM156 177Q156 122 185 87T261 51Q312 51 358 93Q361
96 367 102Q381 115 385 128T404 212Q414 260 421 292V301Q421 329 403 360T342 391Q273 391 215 327T156 177Z" />
<glyph unicode="r" glyph-name="r" horiz-adv-x="342" d="M81 0L176 450H246L227 360Q314 452 423 455L409 388Q339 386 287 345T213 250Q206 232 156 0H81Z" />
<glyph unicode="s" glyph-name="s" horiz-adv-x="383" d="M35 34L61 102Q82 88 93 81T138 63T208 52Q264 52 290 78T316 132Q316 159 295 172T232 194T181 206Q148 217 125 243T101 306Q101 327 109 351T138 401T200 444T299 461Q368 461 435 430L410 364Q386
377 373 383T333 395T274 401Q221 401 199 378T176 329Q176 302 197 290T260 270T317 256Q343 245 366 220T390 154Q390 129 380 103T349 50T288 6T194 -11Q106 -11 35 34Z" />
<glyph unicode="t" glyph-name="t" horiz-adv-x="361" d="M100 386L113 445H199L226 571H296L269 445H410L398 386H256Q248 348 241 313T229 255T219 210T212 175T207 150T203 132T201 120T200 112T199 106T199 100Q199 53 239 53Q284 53 335 86L338 27Q261 -11
181 -11Q121 -11 121 66Q121 72 121 75T121 83T123 94T125 107T129 128T135 155T143 193T153 242T167 306T184 386H100Z" />
<glyph unicode="u" glyph-name="u" horiz-adv-x="517" d="M97 63Q97 80 111 146L174 445H252L185 126Q178 89 178 85Q178 61 196 53T248 45Q301 45 335 71T382 126Q384 131 392 165L452 445H530L436 0H360L370 48Q288 -11 181 -11Q97 -11 97 63Z" />
<glyph unicode="v" glyph-name="v" horiz-adv-x="461" d="M108 445H186Q243 111 243 56V50Q257 95 466 445H541L274 0H186L108 445Z" />
<glyph unicode="w" glyph-name="w" horiz-adv-x="683" d="M108 445H184L204 221L209 132L210 92L208 51Q211 64 219 84T241 135T267 190T300 256T332 319T367 387T398 445H468L490 195L495 123L497 71L496 50Q510 99 690 445H763L531 0H444L426 197L420 295L419
363L421 394Q408 339 231 0H152L108 445Z" />
<glyph unicode="x" glyph-name="x" horiz-adv-x="461" d="M0 0L243 229L100 445H184L286 280L456 445H538L309 229L460 0H377L268 188L83 0H0Z" />
<glyph unicode="y" glyph-name="y" horiz-adv-x="461" d="M0 -198L8 -132Q56 -148 77 -148Q106 -148 126 -126T185 -40Q193 -27 197 -20Q208 -4 208 3Q208 8 205 18L109 445H188Q251 162 251 83Q251 69 249 50Q254 67 264 91T292 149T324 208T363 276T400 337T437
398T466 445H541L205 -99Q175 -146 148 -170T106 -200T71 -205Q33 -205 0 -198Z" />
<glyph unicode="z" glyph-name="z" horiz-adv-x="435" d="M27 0Q34 35 37 40T68 73L382 386L347 385H123L136 445H493L485 405L140 62H347L368 63H414L401 0H27Z" />
<glyph unicode="{" glyph-name="braceleft" horiz-adv-x="500" d="M99 219L112 281Q172 281 224 310T292 389Q343 624 349 642Q360 678 384 698Q387 701 393 705Q452 750 561 750H606L593 689H578Q527 689 495 684T448 667T428 644T419 617Q419 612 418 610Q410
572 402 535T390 477T382 437T375 407T371 389T367 376T363 366Q341 318 290 286T180 250Q234 247 273 215T313 129Q313 111 287 -10T260 -142Q260 -189 383 -189H406L393 -250H351Q278 -248 246 -235Q180 -209 180 -153Q180 -138 207 -15T234 123Q234 166 196
192T99 219Z" />
<glyph unicode="|" glyph-name="bar" horiz-adv-x="278" d="M70 -228Q70 -225 72 -217L269 715Q275 749 294 749Q312 749 312 729Q312 728 309 710L112 -218Q112 -219 111 -223T110 -229T107 -236T103 -242T98 -247T89 -249Q82 -249 76 -243T70 -228Z" />
<glyph unicode="}" glyph-name="braceright" horiz-adv-x="500" d="M0 -250L13 -189H27Q66 -189 90 -187T143 -174T180 -142Q182 -138 225 65Q225 67 228 81T232 99T236 114T242 131T250 146T260 163T274 179T292 196Q351 245 425 250Q371 253 332 285T293 371Q293
389 320 511T346 645L344 654Q332 677 301 683T200 689L213 750H255Q330 748 361 735Q426 708 426 652Q426 638 399 514T372 377Q372 334 410 308T507 281L494 220V219Q434 219 382 191T314 113Q309 97 286 -15T258 -144Q242 -193 187 -221T45 -250H0Z" />
<glyph unicode="~" glyph-name="asciitilde" horiz-adv-x="611" d="M201 557Q213 609 257 642T352 676Q389 676 444 648T530 619Q591 619 609 676H670Q658 625 615 591T519 557Q482 557 427 586T341 615Q317 615 294 601T262 557H201Z" />
</font>
</defs>
</svg>
